<?xml version="1.0" standalone="no"?>
<!DOCTYPE svg PUBLIC "-//W3C//DTD SVG 1.1//EN" "http://www.w3.org/Graphics/SVG/1.1/DTD/svg11.dtd" >
<svg xmlns="http://www.w3.org/2000/svg" xmlns:xlink="http://www.w3.org/1999/xlink" version="1.1">
<metadata>
Created by FontForge 20190801 at Tue Dec 22 02:30:49 2020
 By root
Copyright \(c\) 2020 by Nick Shinn. Published by Shinn Type Foundry. All rights reserved.
</metadata>
<defs>
<font id="Aptly-Regular" horiz-adv-x="468" >
  <font-face 
    font-family="Aptly"
    font-weight="400"
    font-stretch="normal"
    units-per-em="1000"
    panose-1="2 0 0 0 0 0 0 0 0 0"
    ascent="829"
    descent="-171"
    x-height="635"
    cap-height="825"
    bbox="-53 -171 1026 1032"
    underline-thickness="40"
    underline-position="-96"
    stemh="82"
    stemv="86"
    unicode-range="U+0020-FB02"
  />
<missing-glyph horiz-adv-x="518" 
d="M423 -165h-328c-13 0 -22 10 -22 23v1152c0 15 7 22 22 22h328c13 0 22 -10 22 -23v-1152c0 -15 -7 -22 -22 -22zM385 -91v1048c0 13 -9 23 -22 23h-207c-13 0 -23 -9 -23 -22v-1048c0 -13 9 -23 22 -23h207c13 0 23 9 23 22z" />
    <glyph glyph-name="fi" unicode="fi" horiz-adv-x="565" 
d="M51 635h41c13 0 22 10 22 23v13c0 26 2 47 6 64c6 23 16 40 30 54c17 16 43 36 110 36h31c14 0 25 -11 25 -25v-29c0 -14 -11 -25 -25 -25h-23c-34 0 -48 -6 -57 -16s-13 -28 -13 -49v-23c0 -13 9 -23 22 -23h71c14 0 25 -11 25 -25v-29c0 -14 -11 -25 -25 -25h-71
c-13 0 -22 -11 -22 -24v-507c0 -14 -11 -25 -25 -25h-34c-14 0 -25 11 -25 25v507c0 13 -9 24 -22 24h-41c-14 0 -25 11 -25 25v29c0 14 11 25 25 25zM411 25v585c0 14 11 25 25 25h34c14 0 25 -11 25 -25v-585c0 -14 -11 -25 -25 -25h-34c-14 0 -25 11 -25 25zM408 760v40
c0 14 11 25 25 25h40c14 0 25 -11 25 -25v-40c0 -14 -11 -25 -25 -25h-40c-14 0 -25 11 -25 25z" />
    <glyph glyph-name="fl" unicode="fl" horiz-adv-x="565" 
d="M51 635h41c13 0 22 10 22 23v13c0 26 2 47 6 64c6 23 16 40 30 54c17 16 43 36 110 36h31c14 0 25 -11 25 -25v-29c0 -14 -11 -25 -25 -25h-23c-34 0 -48 -6 -57 -16s-13 -28 -13 -49v-23c0 -13 9 -23 22 -23h71c14 0 25 -11 25 -25v-29c0 -14 -11 -25 -25 -25h-71
c-13 0 -22 -11 -22 -24v-507c0 -14 -11 -25 -25 -25h-34c-14 0 -25 11 -25 25v507c0 13 -9 24 -22 24h-41c-14 0 -25 11 -25 25v29c0 14 11 25 25 25zM495 800v-775c0 -14 -11 -25 -25 -25h-34c-14 0 -25 11 -25 25v775c0 14 11 25 25 25h34c14 0 25 -11 25 -25z" />
    <glyph glyph-name=".notdef" horiz-adv-x="518" 
d="M423 -165h-328c-13 0 -22 10 -22 23v1152c0 15 7 22 22 22h328c13 0 22 -10 22 -23v-1152c0 -15 -7 -22 -22 -22zM385 -91v1048c0 13 -9 23 -22 23h-207c-13 0 -23 -9 -23 -22v-1048c0 -13 9 -23 22 -23h207c13 0 23 9 23 22z" />
    <glyph glyph-name="NULL" horiz-adv-x="0" 
 />
    <glyph glyph-name="NULL" horiz-adv-x="0" 
 />
    <glyph glyph-name="space" unicode=" " horiz-adv-x="220" 
 />
    <glyph glyph-name="onequarter" unicode="&#xbc;" horiz-adv-x="936" 
d="M722 525c0 -6 -2 -18 -11 -49l-67 -237c-2 -8 -7 -21 -7 -30c0 -12 9 -22 22 -22h28c15 0 22 7 22 22v83c0 13 9 23 22 23h33c15 0 22 -8 22 -23v-81c0 -13 9 -23 22 -23h17c15 0 22 -10 22 -22v-31c0 -15 -7 -22 -22 -22h-17c-13 0 -22 -10 -22 -23v-66
c0 -15 -7 -23 -22 -23h-33c-13 0 -22 10 -22 23v67c0 13 -9 23 -22 23h-112c-15 0 -22 10 -22 22v30c0 26 9 63 17 91l74 267c5 17 11 22 24 22h32c15 0 22 -7 22 -21zM279 35l217 772c5 17 12 22 25 22h29c15 0 21 -7 21 -21c0 -5 -2 -19 -7 -36l-213 -754
c-5 -17 -12 -22 -25 -22h-29c-15 0 -21 7 -21 21c0 5 1 11 3 18zM175 299v367c0 13 -10 23 -23 23h-42c-15 0 -22 10 -22 22v32c0 15 7 22 22 22h22c26 0 33 5 39 24l5 15c4 12 10 22 23 22h30c15 0 22 -8 22 -23v-504c0 -15 -7 -23 -22 -23h-32c-13 0 -22 10 -22 23z" />
    <glyph glyph-name="onesuperior" unicode="&#xb9;" horiz-adv-x="288" 
d="M117 299v367c0 13 -10 23 -23 23h-42c-15 0 -22 10 -22 22v32c0 15 7 22 22 22h22c26 0 33 5 39 24l5 15c4 12 10 22 23 22h30c15 0 22 -8 22 -23v-504c0 -15 -7 -23 -22 -23h-32c-13 0 -22 10 -22 23z" />
    <glyph glyph-name="threequarters" unicode="&#xbe;" horiz-adv-x="936" 
d="M330 35l217 772c5 17 12 22 25 22h29c15 0 21 -7 21 -21c0 -5 -2 -19 -7 -36l-213 -754c-5 -17 -12 -22 -25 -22h-29c-15 0 -21 7 -21 21c0 5 1 11 3 18zM758 525c0 -6 -2 -18 -11 -49l-67 -237c-2 -8 -7 -21 -7 -30c0 -12 9 -22 22 -22h28c15 0 22 7 22 22v83
c0 13 9 23 22 23h33c15 0 22 -8 22 -23v-81c0 -13 9 -23 22 -23h17c15 0 22 -10 22 -22v-31c0 -15 -7 -22 -22 -22h-17c-13 0 -22 -10 -22 -23v-66c0 -15 -7 -23 -22 -23h-33c-13 0 -22 10 -22 23v67c0 13 -9 23 -22 23h-112c-15 0 -22 10 -22 22v30c0 26 9 63 17 91l74 267
c5 17 11 22 24 22h32c15 0 22 -7 22 -21zM161 537v32c0 15 7 22 22 22h19c16 0 29 7 39 18c12 12 14 31 14 57v17c0 26 -2 45 -14 57c-10 11 -24 18 -40 18c-14 0 -27 -5 -37 -16c-12 -12 -16 -31 -16 -58v-13c0 -15 -7 -21 -22 -21h-33c-14 0 -21 7 -21 22v24
c0 38 13 73 37 98c22 23 52 38 90 38c35 0 67 -10 89 -30c31 -26 46 -68 46 -110v-8c-1 -43 -7 -80 -38 -109l-8 -7c-5 -5 -7 -10 -7 -15s2 -10 7 -15l8 -7c31 -29 37 -66 38 -109v-8c0 -42 -15 -84 -46 -110c-22 -20 -54 -30 -89 -30c-38 0 -68 15 -90 38
c-24 25 -37 60 -37 98v24c0 15 7 22 21 22h33c15 0 22 -7 22 -22v-12c0 -27 4 -46 16 -58c10 -11 23 -16 37 -16c16 0 30 7 40 18c12 12 14 31 14 57v17c0 26 -2 45 -14 57c-10 11 -23 18 -39 18h-19c-15 0 -22 7 -22 22z" />
    <glyph glyph-name="threesuperior" unicode="&#xb3;" horiz-adv-x="400" 
d="M158 537v32c0 15 7 22 22 22h19c16 0 29 7 39 18c12 12 14 31 14 57v17c0 26 -2 45 -14 57c-10 11 -24 18 -40 18c-14 0 -27 -5 -37 -16c-12 -12 -16 -31 -16 -58v-13c0 -15 -7 -21 -22 -21h-33c-14 0 -21 7 -21 22v24c0 38 13 73 37 98c22 23 52 38 90 38
c35 0 67 -10 89 -30c31 -26 46 -68 46 -110v-8c-1 -43 -7 -80 -38 -109l-8 -7c-5 -5 -7 -10 -7 -15s2 -10 7 -15l8 -7c31 -29 37 -66 38 -109v-8c0 -42 -15 -84 -46 -110c-22 -20 -54 -30 -89 -30c-38 0 -68 15 -90 38c-24 25 -37 60 -37 98v24c0 15 7 22 21 22h33
c15 0 22 -7 22 -22v-12c0 -27 4 -46 16 -58c10 -11 23 -16 37 -16c16 0 30 7 40 18c12 12 14 31 14 57v17c0 26 -2 45 -14 57c-10 11 -23 18 -39 18h-19c-15 0 -22 7 -22 22z" />
    <glyph glyph-name="twosuperior" unicode="&#xb2;" horiz-adv-x="397" 
d="M329 693c0 -42 -18 -94 -48 -133l-59 -75c-22 -28 -38 -51 -44 -60c-16 -24 -22 -34 -22 -46s8 -21 22 -21h128c15 0 22 -10 22 -22v-33c0 -15 -7 -22 -22 -22h-216c-10 0 -22 7 -22 22v28c0 49 24 99 54 144c54 80 129 142 129 207v8c0 22 -3 39 -14 50
c-10 11 -24 18 -40 18c-14 0 -27 -5 -37 -16c-12 -12 -16 -31 -16 -58v-13c0 -15 -7 -22 -22 -22h-32c-15 0 -22 7 -22 22v25c0 37 13 72 36 97c22 24 53 39 91 39c33 0 64 -11 87 -30c29 -24 47 -61 47 -109z" />
    <glyph glyph-name="brokenbar" unicode="&#xa6;" horiz-adv-x="500" 
d="M292 313v-341c0 -15 -7 -22 -22 -22h-40c-15 0 -22 7 -22 22v341c0 15 7 22 22 22h40c15 0 22 -7 22 -22zM292 853v-341c0 -15 -7 -22 -22 -22h-40c-15 0 -22 7 -22 22v341c0 15 7 22 22 22h40c15 0 22 -7 22 -22z" />
    <glyph glyph-name="minus" unicode="&#x2212;" horiz-adv-x="549" 
d="M99 376h351c14 0 25 -11 25 -25v-32c0 -14 -11 -25 -25 -25h-351c-14 0 -25 11 -25 25v32c0 14 11 25 25 25z" />
    <glyph glyph-name="multiply" unicode="&#xd7;" horiz-adv-x="549" 
d="M211 335c0 5 -2 11 -8 17l-100 100c-6 5 -8 11 -8 18c0 6 2 13 8 19l19 19c5 5 11 8 18 8c6 0 12 -1 19 -8l100 -100c5 -5 10 -8 15 -8s10 3 15 8l100 100c5 5 11 8 18 8c6 0 12 -1 19 -8l19 -19c7 -7 8 -13 8 -19c0 -7 -3 -13 -8 -18l-100 -100c-6 -6 -8 -12 -8 -17
s2 -11 8 -17l100 -100c6 -6 8 -13 8 -19c0 -7 -3 -13 -8 -18l-19 -19c-6 -6 -13 -8 -19 -8c-7 0 -13 3 -18 8l-100 100c-5 5 -10 8 -15 8s-10 -3 -15 -8l-100 -100c-6 -6 -13 -8 -19 -8c-7 0 -13 2 -18 8l-19 19c-6 5 -8 11 -8 18c0 6 2 13 8 19l100 100c6 6 8 12 8 17z" />
    <glyph glyph-name="exclam" unicode="!" horiz-adv-x="240" 
d="M162 678l-4 -463c0 -14 -11 -25 -25 -25h-26c-14 0 -25 11 -25 25l-4 463v122c0 14 11 25 25 25h34c14 0 25 -11 25 -25v-122zM166 70v-45c0 -14 -11 -25 -25 -25h-42c-14 0 -25 11 -25 25v45c0 14 11 25 25 25h42c14 0 25 -11 25 -25z" />
    <glyph glyph-name="quotedbl" unicode="&#x22;" horiz-adv-x="430" 
d="M143 621h-22c-13 0 -25 9 -26 22l-5 106v51c0 14 11 25 25 25h34c14 0 25 -11 25 -25v-51l-5 -106c-1 -13 -13 -22 -26 -22zM309 621h-22c-13 0 -25 9 -26 22l-5 106v51c0 14 11 25 25 25h34c14 0 25 -11 25 -25v-51l-5 -106c-1 -13 -13 -22 -26 -22z" />
    <glyph glyph-name="numbersign" unicode="#" horiz-adv-x="549" 
d="M229 475l-14 -109c-1 -9 -1 -10 -1 -12c0 -13 6 -20 22 -20h57c14 0 24 5 26 21l14 109c1 9 1 10 1 12c0 13 -6 20 -22 20h-57c-14 0 -24 -5 -26 -21zM408 475l-15 -105c-1 -6 -2 -15 -2 -17c0 -13 7 -19 23 -19h38c14 0 25 -11 25 -25v-17c0 -14 -11 -25 -25 -25h-50
c-13 0 -23 -5 -25 -21l-30 -217c-3 -23 -15 -29 -32 -29h-11c-20 0 -29 9 -29 28c0 6 1 14 2 24l25 183c1 9 1 10 1 12c0 13 -6 20 -22 20h-57c-14 0 -24 -5 -26 -21l-29 -217c-3 -23 -14 -29 -32 -29h-11c-20 0 -29 9 -29 28c0 6 1 14 2 24l25 183c1 9 1 10 1 12
c0 13 -6 20 -22 20h-42c-14 0 -25 11 -25 25v17c0 14 11 25 25 25h54c13 0 23 5 25 21l15 109c1 9 1 10 1 12c0 13 -6 20 -22 20h-38c-14 0 -25 11 -25 25v17c0 14 11 25 25 25h50c13 0 23 5 25 21l30 217c3 23 15 29 32 29h11c20 0 29 -9 29 -28c0 -6 -1 -14 -2 -24
l-25 -183c-1 -9 -1 -10 -1 -12c0 -13 6 -20 22 -20h57c14 0 24 5 26 21l29 217c3 23 14 29 32 29h11c20 0 29 -9 29 -28c0 -6 -1 -14 -2 -24l-25 -183c-1 -9 -1 -10 -1 -12c0 -13 6 -20 22 -20h42c14 0 25 -11 25 -25v-17c0 -14 -11 -25 -25 -25h-54c-13 0 -23 -5 -25 -21z
" />
    <glyph glyph-name="dollar" unicode="$" 
d="M406 251v-41c-1 -73 -39 -134 -111 -160c-11 -4 -18 -11 -18 -21v-70c0 -14 -12 -25 -27 -25h-35c-14 0 -25 11 -25 25v70c0 10 -8 17 -19 21c-72 23 -108 80 -108 176v14c0 14 11 25 26 25h35c14 0 26 -11 26 -25v-9c0 -41 6 -78 23 -97c17 -17 37 -25 61 -25
s46 7 63 23c15 15 24 38 24 72v46c0 72 -18 84 -71 111l-75 39c-35 18 -64 34 -82 62c-19 28 -28 62 -28 116v41c0 56 20 100 52 129c16 15 35 23 55 30c10 4 18 11 18 21v57c0 14 11 25 25 25h35c15 0 27 -11 27 -25v-57c0 -10 7 -17 19 -21c27 -9 49 -24 67 -43
c26 -28 43 -66 43 -123v-19c0 -14 -11 -25 -26 -25h-35c-14 0 -26 11 -26 25v22c0 33 -9 62 -24 78c-17 17 -38 25 -62 25s-44 -7 -61 -23c-15 -15 -21 -38 -21 -72v-44c0 -72 19 -85 70 -111l76 -39c33 -16 63 -34 82 -63s27 -61 27 -115z" />
    <glyph glyph-name="percent" unicode="%" horiz-adv-x="778" 
d="M212 39l277 764c6 16 13 22 26 22h32c8 0 13 -2 17 -6c3 -3 5 -8 5 -15c0 -5 -2 -11 -4 -18l-277 -764c-6 -16 -13 -22 -26 -22h-32c-9 0 -14 3 -18 7c-3 3 -4 8 -4 14c0 5 2 11 4 18zM318 688v-75c0 -48 -12 -78 -33 -102c-22 -25 -55 -41 -97 -41s-75 16 -98 41
c-22 23 -32 54 -32 102v75c0 48 12 79 32 102c23 25 56 42 98 42s75 -17 97 -42c21 -23 33 -54 33 -102zM136 692v-84c0 -25 3 -44 14 -56c10 -11 24 -15 38 -15s28 4 38 15c11 12 15 31 15 56v84c0 25 -4 45 -15 57c-10 10 -24 15 -38 15s-28 -5 -38 -15
c-11 -12 -14 -32 -14 -57zM720 211v-75c0 -48 -12 -78 -33 -102c-22 -25 -55 -41 -97 -41s-75 16 -98 41c-22 23 -32 54 -32 102v75c0 48 12 79 32 102c23 25 56 42 98 42s75 -17 97 -42c21 -23 33 -54 33 -102zM538 215v-84c0 -25 3 -44 14 -56c10 -11 24 -15 38 -15
s28 4 38 15c11 12 15 31 15 56v84c0 25 -4 45 -15 57c-10 10 -24 15 -38 15s-28 -5 -38 -15c-11 -12 -14 -32 -14 -57z" />
    <glyph glyph-name="ampersand" unicode="&#x26;" horiz-adv-x="515" 
d="M292 378h-62c-23 0 -44 -9 -60 -26c-18 -19 -24 -49 -24 -90v-66c0 -41 6 -71 24 -90c16 -17 37 -25 60 -25h62c13 0 22 10 22 23v251c0 13 -9 23 -22 23zM373 0h-142c-54 0 -97 21 -126 54c-26 30 -43 69 -43 132v75c0 46 5 96 40 131l8 8c6 6 8 11 8 16s-2 10 -8 16
l-8 8c-35 35 -40 85 -40 131v68c0 63 16 102 42 132c29 33 72 54 126 54h70c14 0 25 -11 25 -25v-31c0 -14 -11 -25 -25 -25h-71c-23 0 -44 -8 -60 -25c-18 -19 -23 -49 -23 -90v-57c0 -41 6 -71 24 -90c16 -17 38 -25 61 -25h61c13 0 22 11 22 24v57c0 14 11 25 25 25h34
c14 0 25 -11 25 -25v-57c0 -13 9 -24 22 -24h26c14 0 25 -11 25 -25v-29c0 -14 -11 -25 -25 -25h-26c-13 0 -22 -10 -22 -23v-330c0 -14 -11 -25 -25 -25z" />
    <glyph glyph-name="quotesingle" unicode="'" horiz-adv-x="222" 
d="M122 621h-22c-13 0 -25 9 -26 22l-5 106v51c0 14 11 25 25 25h34c14 0 25 -11 25 -25v-51l-5 -106c-1 -13 -13 -22 -26 -22z" />
    <glyph glyph-name="parenleft" unicode="(" horiz-adv-x="316" 
d="M138 712v-666c0 -51 4 -77 15 -94c14 -21 42 -38 70 -40l13 -1c11 0 25 -11 25 -25v-26c0 -14 -11 -25 -25 -25h-6c-57 0 -104 19 -133 52c-26 30 -43 62 -43 147v692c0 85 17 117 43 147c29 33 76 52 133 52h6c14 0 25 -11 25 -25v-26c0 -14 -14 -24 -25 -25l-13 -1
c-31 -2 -56 -19 -70 -40c-11 -17 -15 -43 -15 -96z" />
    <glyph glyph-name="parenright" unicode=")" horiz-adv-x="316" 
d="M177 46v666c0 53 -4 79 -15 96c-14 21 -39 38 -70 40l-13 1c-11 1 -25 11 -25 25v26c0 14 11 25 25 25h6c57 0 104 -19 133 -52c26 -30 43 -62 43 -147v-692c0 -85 -17 -117 -43 -147c-29 -33 -76 -52 -133 -52h-6c-14 0 -25 11 -25 25v26c0 14 14 25 25 25l13 1
c28 2 56 19 70 40c11 17 15 43 15 94z" />
    <glyph glyph-name="asterisk" unicode="*" horiz-adv-x="457" 
d="M162 674c0 7 -2 13 -13 20l-39 24c-8 5 -12 11 -12 23c0 8 4 15 8 19s9 7 15 7c5 0 10 -2 14 -5l32 -20c4 -3 8 -5 13 -5c12 0 22 8 22 22v44c0 15 7 22 22 22h8c15 0 22 -7 22 -22v-44c0 -14 10 -22 22 -22c5 0 9 2 13 5l32 20c4 3 9 5 14 5c6 0 11 -3 15 -7
s8 -11 8 -19c0 -12 -4 -18 -12 -23l-39 -24c-11 -7 -13 -13 -13 -20s2 -13 13 -20l39 -24c8 -5 12 -11 12 -23c0 -8 -4 -15 -8 -19s-9 -7 -15 -7c-5 0 -10 2 -14 5l-32 20c-4 3 -8 5 -13 5c-12 0 -22 -8 -22 -22v-44c0 -15 -7 -22 -22 -22h-8c-15 0 -22 7 -22 22v44
c0 14 -10 22 -22 22c-5 0 -9 -2 -13 -5l-32 -20c-4 -3 -9 -5 -14 -5c-6 0 -11 3 -15 7s-8 11 -8 19c0 12 4 18 12 23l39 24c11 7 13 13 13 20z" />
    <glyph glyph-name="plus" unicode="+" horiz-adv-x="549" 
d="M233 149v126c0 13 -9 19 -22 19h-112c-14 0 -25 11 -25 25v32c0 14 11 25 25 25h112c13 0 22 7 22 20v125c0 14 11 25 25 25h34c14 0 25 -11 25 -25v-125c0 -13 9 -20 22 -20h111c14 0 25 -11 25 -25v-32c0 -14 -11 -25 -25 -25h-111c-13 0 -22 -6 -22 -19v-126
c0 -14 -11 -25 -25 -25h-34c-14 0 -25 11 -25 25z" />
    <glyph glyph-name="comma" unicode="," horiz-adv-x="228" 
d="M90 0l-4 1c-10 3 -17 12 -17 24v45c0 14 11 25 25 25h40c14 0 25 -11 25 -25v-61c0 -63 -21 -98 -49 -123l-9 -8c-8 -6 -19 -14 -31 -14s-26 10 -26 26c0 12 7 19 17 26l8 6c22 18 34 41 34 61c0 8 -2 14 -13 17z" />
    <glyph glyph-name="hyphen" unicode="-" horiz-adv-x="326" 
d="M88 380h149c14 0 25 -11 25 -25v-37c0 -14 -11 -25 -25 -25h-149c-14 0 -25 11 -25 25v37c0 14 11 25 25 25z" />
    <glyph glyph-name="period" unicode="." horiz-adv-x="228" 
d="M69 25v45c0 14 11 25 25 25h40c14 0 25 -11 25 -25v-45c0 -14 -11 -25 -25 -25h-40c-14 0 -25 11 -25 25z" />
    <glyph glyph-name="slash" unicode="/" horiz-adv-x="348" 
d="M44 -11l197 854c2 7 4 12 7 15c4 5 10 7 18 7h17c7 0 12 -2 16 -5s6 -9 6 -16c0 -3 -1 -9 -3 -18l-197 -854c-2 -7 -4 -13 -7 -16c-4 -5 -9 -6 -17 -6h-17c-6 0 -11 1 -15 4c-5 3 -7 9 -7 17c0 3 0 9 2 18z" />
    <glyph glyph-name="zero" unicode="0" 
d="M234 71c24 0 45 8 61 25c19 19 25 49 25 90v453c0 41 -6 71 -25 90c-16 17 -37 25 -61 25s-45 -8 -61 -25c-19 -19 -25 -49 -25 -90v-453c0 -41 6 -71 25 -90c16 -17 37 -25 61 -25zM234 -7c-55 0 -99 21 -129 54c-26 30 -43 69 -43 132v467c0 63 17 102 43 132
c30 33 74 54 129 54s99 -21 129 -54c26 -30 43 -69 43 -132v-467c0 -63 -17 -102 -43 -132c-30 -33 -74 -54 -129 -54z" />
    <glyph glyph-name="one" unicode="1" horiz-adv-x="320" 
d="M220 805v-780c0 -14 -11 -25 -25 -25h-35c-14 0 -25 11 -25 25v632c0 13 -10 19 -23 19h-61c-14 0 -26 11 -26 25v26c0 14 12 25 26 25h53c16 0 22 9 25 21l9 32c4 16 13 25 31 25h26c14 0 25 -11 25 -25z" />
    <glyph glyph-name="two" unicode="2" horiz-adv-x="462" 
d="M380 0h-292c-14 0 -26 11 -26 25v69c0 101 65 181 129 256l17 20c91 108 111 142 111 216v53c0 41 -6 71 -24 90c-16 17 -38 25 -61 25c-24 0 -45 -8 -61 -25c-19 -19 -24 -49 -24 -90v-46c0 -14 -11 -25 -25 -25h-35c-14 0 -27 11 -27 25v53c0 63 17 102 43 132
c30 33 74 54 129 54s99 -21 128 -54c27 -30 43 -69 43 -132v-49c0 -111 -53 -184 -134 -279l-17 -20c-73 -86 -105 -149 -105 -186v-6c0 -13 4 -24 21 -24h210c14 0 25 -11 25 -25v-32c0 -14 -11 -25 -25 -25z" />
    <glyph glyph-name="three" unicode="3" horiz-adv-x="462" 
d="M235 376h-36c-14 0 -25 11 -25 25v32c0 14 11 25 25 25h35c23 0 46 8 62 25c18 19 24 49 24 90v63c0 41 -5 71 -23 90c-16 17 -39 28 -63 28s-45 -8 -61 -25c-19 -19 -25 -49 -25 -90v-46c0 -14 -11 -25 -25 -25h-35c-14 0 -26 11 -26 25v53c0 63 17 102 43 132
c30 33 74 54 129 54s100 -21 129 -54c27 -30 43 -69 43 -132v-82c0 -46 -5 -96 -41 -131l-8 -8c-6 -6 -8 -11 -8 -16s2 -10 8 -16l8 -8c36 -35 41 -85 41 -131v-75c0 -63 -17 -102 -44 -132c-29 -33 -73 -54 -128 -54s-99 21 -129 54c-26 30 -43 69 -43 132v61
c0 14 12 25 26 25h35c14 0 25 -11 25 -25v-50c0 -41 6 -71 25 -90c16 -17 37 -26 62 -26c23 0 45 8 61 25c18 19 24 49 24 90v72c0 41 -6 71 -24 90c-16 17 -38 25 -61 25z" />
    <glyph glyph-name="four" unicode="4" horiz-adv-x="478" 
d="M165 256l78 1c13 0 22 11 22 24v160c0 14 12 25 26 25h35c14 0 25 -11 25 -25v-160c0 -13 9 -24 22 -24h36c14 0 26 -11 26 -25v-33c0 -14 -12 -25 -26 -25h-36c-13 0 -22 -10 -22 -23v-126c0 -14 -11 -25 -25 -25h-35c-14 0 -26 11 -26 25v126c0 13 -9 23 -22 23h-173
c-14 0 -23 11 -23 24v37c0 18 9 56 40 184l92 384c5 20 14 26 34 26h27c14 0 26 -9 26 -25c0 -23 -7 -53 -75 -317l-9 -35c-18 -71 -42 -163 -42 -178c2 -12 10 -18 25 -18z" />
    <glyph glyph-name="five" unicode="5" horiz-adv-x="460" 
d="M374 800v-32c0 -14 -11 -25 -25 -25h-156c-13 0 -23 -10 -23 -23v-102c0 -63 -1 -93 -1 -105c0 -14 6 -21 21 -21c10 0 23 6 55 6c52 0 97 -21 126 -60c22 -30 34 -62 34 -118v-141c0 -63 -16 -102 -43 -132c-29 -33 -73 -54 -128 -54s-99 21 -129 54
c-26 30 -43 69 -43 132v61c0 14 12 25 26 25h35c14 0 25 -11 25 -25v-54c0 -41 6 -71 25 -90c16 -17 37 -25 61 -25c23 0 45 8 61 25c18 19 24 49 24 90v120c0 41 -6 71 -24 90c-16 17 -38 25 -61 25s-39 -3 -67 -15l-13 -6c-12 -5 -18 -6 -24 -6h-4c-22 0 -41 17 -41 44
v362c0 14 11 25 25 25h239c14 0 25 -11 25 -25z" />
    <glyph glyph-name="six" unicode="6" horiz-adv-x="465" 
d="M235 378h-65c-13 0 -22 -10 -22 -23v-169c0 -41 6 -71 25 -90c16 -17 37 -25 61 -25c23 0 47 8 63 25c18 19 23 49 23 90v77c0 41 -4 71 -22 90c-16 17 -40 25 -63 25zM320 593v46c0 41 -6 71 -24 90c-16 17 -39 25 -62 25c-24 0 -45 -8 -61 -25c-19 -19 -25 -49 -25 -90
v-160c0 -13 9 -23 22 -23h64c55 0 100 -21 129 -54c27 -30 43 -69 43 -132v-91c0 -63 -16 -102 -43 -132c-29 -33 -74 -54 -129 -54s-99 21 -129 54c-26 30 -43 69 -43 132v467c0 63 17 102 43 132c30 33 74 54 129 54s100 -21 129 -54c27 -30 43 -69 43 -132v-53
c0 -14 -11 -25 -25 -25h-34c-14 0 -27 11 -27 25z" />
    <glyph glyph-name="seven" unicode="7" horiz-adv-x="422" 
d="M202 57l-6 -31c-4 -20 -15 -26 -35 -26h-27c-14 0 -26 9 -26 25v2c0 17 43 191 96 403l29 118c18 71 42 162 42 177c0 12 -10 18 -25 18h-199c-14 0 -26 11 -26 25v32c0 14 12 25 26 25h292c14 0 25 -11 25 -25v-35c0 -18 -8 -56 -40 -184l-60 -246
c-24 -98 -59 -241 -66 -278z" />
    <glyph glyph-name="eight" unicode="8" 
d="M234 74c24 0 45 8 61 25c19 19 25 49 25 90v74c0 41 -6 71 -25 90c-16 17 -37 25 -61 25s-45 -8 -61 -25c-19 -19 -25 -49 -25 -90v-74c0 -41 6 -71 25 -90c16 -17 37 -25 61 -25zM233 456c24 0 46 8 62 25c19 19 25 49 25 90v65c0 41 -5 71 -24 90c-16 17 -37 25 -61 25
c-26 0 -47 -8 -63 -25c-19 -19 -24 -49 -24 -90v-65c0 -41 6 -71 25 -90c16 -17 38 -25 60 -25zM233 832c57 0 100 -21 130 -54c26 -30 43 -69 43 -132v-75c0 -46 -6 -96 -41 -131l-8 -8c-6 -6 -9 -11 -9 -16s3 -10 9 -16l8 -8c35 -35 41 -85 41 -131v-82
c0 -63 -18 -102 -44 -132c-30 -33 -74 -54 -129 -54c-53 0 -97 21 -127 54c-26 30 -44 69 -44 132v82c0 46 6 96 41 131l8 8c6 6 9 11 9 16s-3 10 -9 16l-8 8c-35 35 -41 85 -41 131v75c0 63 17 102 43 132c30 33 73 54 128 54z" />
    <glyph glyph-name="nine" unicode="9" horiz-adv-x="465" 
d="M233 447h65c13 0 22 10 22 23v169c0 41 -6 71 -24 90c-16 17 -40 25 -63 25c-24 0 -46 -8 -62 -25c-19 -19 -23 -49 -23 -90v-77c0 -41 4 -71 23 -90c16 -17 38 -25 62 -25zM149 240v-54c0 -41 6 -71 25 -90c16 -17 37 -25 61 -25c23 0 45 8 61 25c18 19 24 49 24 90v160
c0 13 -9 23 -22 23h-64c-55 0 -99 21 -129 54c-26 30 -43 69 -43 132v91c0 63 17 102 43 132c30 33 75 54 130 54s99 -21 128 -54c27 -30 43 -69 43 -132v-467c0 -63 -16 -102 -43 -132c-29 -33 -73 -54 -128 -54s-99 21 -129 54c-26 30 -43 69 -43 132v61c0 14 12 25 26 25
h34c14 0 26 -11 26 -25z" />
    <glyph glyph-name="colon" unicode=":" horiz-adv-x="228" 
d="M69 505v45c0 14 11 25 25 25h40c14 0 25 -11 25 -25v-45c0 -14 -11 -25 -25 -25h-40c-14 0 -25 11 -25 25zM69 25v45c0 14 11 25 25 25h40c14 0 25 -11 25 -25v-45c0 -14 -11 -25 -25 -25h-40c-14 0 -25 11 -25 25z" />
    <glyph glyph-name="semicolon" unicode=";" horiz-adv-x="228" 
d="M90 0l-4 1c-10 3 -17 12 -17 24v45c0 14 11 25 25 25h40c14 0 25 -11 25 -25v-61c0 -63 -21 -98 -49 -123l-9 -8c-8 -6 -19 -14 -31 -14s-26 10 -26 26c0 12 7 19 17 26l8 6c22 18 34 41 34 61c0 8 -2 14 -13 17zM69 505v45c0 14 11 25 25 25h40c14 0 25 -11 25 -25v-45
c0 -14 -11 -25 -25 -25h-40c-14 0 -25 11 -25 25z" />
    <glyph glyph-name="less" unicode="&#x3c;" horiz-adv-x="549" 
d="M165 336c0 -13 10 -18 23 -22l266 -78c19 -6 23 -13 23 -26v-31c0 -15 -8 -22 -22 -22c-5 0 -11 1 -17 3l-315 96c-36 11 -47 25 -47 58v42c0 33 15 49 47 58l317 87c4 1 13 3 18 3c14 0 21 -7 21 -22v-21c0 -13 -5 -20 -22 -25l-269 -78c-13 -4 -23 -9 -23 -22z" />
    <glyph glyph-name="equal" unicode="=" horiz-adv-x="549" 
d="M72 286h351c14 0 25 -11 25 -25v-32c0 -14 -11 -25 -25 -25h-351c-14 0 -25 11 -25 25v32c0 14 11 25 25 25zM72 466h351c14 0 25 -11 25 -25v-32c0 -14 -11 -25 -25 -25h-351c-14 0 -25 11 -25 25v32c0 14 11 25 25 25z" />
    <glyph glyph-name="greater" unicode="&#x3e;" horiz-adv-x="549" 
d="M390 335c0 13 -10 18 -23 22l-266 78c-19 6 -23 13 -23 26v31c0 15 8 22 22 22c5 0 11 -1 17 -3l315 -96c36 -11 47 -25 47 -58v-42c0 -33 -11 -47 -47 -58l-317 -97c-4 -1 -13 -3 -18 -3c-14 0 -21 7 -21 22v31c0 13 5 20 22 25l269 78c13 4 23 9 23 22z" />
    <glyph glyph-name="question" unicode="?" horiz-adv-x="451" 
d="M188 25v45c0 14 11 25 25 25h41c14 0 26 -11 26 -25v-45c0 -14 -12 -25 -26 -25h-41c-14 0 -25 11 -25 25zM196 212c-1 19 -3 61 -3 76c0 65 24 98 61 149l11 16c28 40 54 84 54 157v29c0 41 -6 71 -24 90c-16 17 -38 25 -61 25c-24 0 -45 -8 -61 -25
c-19 -19 -24 -49 -24 -90v-46c0 -14 -11 -25 -25 -25h-35c-14 0 -27 11 -27 25v53c0 63 17 102 43 132c30 33 74 54 129 54s99 -21 128 -54c27 -30 43 -69 43 -132v-28c0 -89 -12 -120 -73 -212l-14 -20c-36 -55 -40 -70 -46 -144l-2 -30c-1 -13 -13 -22 -26 -22h-21
c-14 0 -26 9 -27 22z" />
    <glyph glyph-name="at" unicode="@" horiz-adv-x="767" 
d="M520 16c-38 -13 -82 -23 -125 -23c-205 0 -353 142 -353 363v114c0 217 161 363 343 363c194 0 339 -147 339 -349v-26c0 -195 -88 -300 -192 -300c-27 0 -46 5 -62 13l-4 2c-9 4 -13 10 -30 10c-12 0 -25 -8 -43 -15c-14 -5 -31 -10 -56 -10c-37 0 -70 14 -96 39
c-29 29 -48 72 -48 123c0 31 2 55 9 99l14 93c15 99 69 164 170 164c61 0 73 -25 90 -25c9 0 13 3 21 10l4 3c9 8 19 12 29 12c16 0 28 -11 28 -30l-48 -329c-6 -44 -6 -50 -6 -56c0 -36 18 -54 43 -54c16 0 35 8 54 24c42 38 68 115 68 227v26c0 192 -135 297 -283 297
c-182 0 -289 -148 -289 -311v-114c0 -200 120 -311 301 -311c87 0 145 30 199 73l5 4c9 7 13 14 25 14c5 0 11 -2 15 -6l5 -5c5 -5 7 -10 7 -15c0 -10 -5 -16 -18 -27c-35 -30 -73 -52 -116 -67zM345 234c27 0 50 9 66 28c11 13 19 31 22 54l20 151c3 21 5 39 5 67
c0 23 -12 41 -29 53c-14 10 -30 15 -47 15c-19 0 -36 -4 -49 -13c-19 -12 -31 -34 -36 -67l-18 -134c-6 -44 -7 -71 -7 -76c0 -22 6 -40 18 -54c13 -15 31 -24 55 -24z" />
    <glyph glyph-name="A" unicode="A" 
d="M170 427h128c12 0 22 10 22 22v190c0 41 -6 71 -25 90c-16 17 -37 25 -61 25s-45 -8 -61 -25c-19 -19 -25 -49 -25 -90v-190c0 -12 10 -22 22 -22zM298 347h-128c-12 0 -22 -10 -22 -22v-300c0 -14 -11 -25 -25 -25h-35c-14 0 -26 11 -26 25v621c0 63 17 102 43 132
c30 33 74 54 129 54s99 -21 129 -54c26 -30 43 -69 43 -132v-621c0 -14 -12 -25 -26 -25h-35c-14 0 -25 11 -25 25v300c0 12 -10 22 -22 22z" />
    <glyph glyph-name="B" unicode="B" 
d="M318 196v66c0 41 -6 71 -24 90c-16 17 -38 25 -61 25h-61c-13 0 -22 -10 -22 -23v-251c0 -15 7 -22 22 -22h61c23 0 45 8 61 25c18 19 24 49 24 90zM318 572v57c0 41 -5 71 -23 90c-16 17 -38 25 -61 25h-59c-17 0 -25 -7 -25 -22v-243c0 -15 7 -22 22 -22h60
c23 0 46 8 62 25c18 19 24 49 24 90zM232 0h-142c-14 0 -26 11 -26 25v775c0 14 12 25 26 25h143c55 0 99 -21 128 -54c27 -30 43 -69 43 -132v-68c0 -46 -5 -96 -41 -131l-8 -8c-6 -6 -8 -11 -8 -16s2 -10 8 -16l8 -8c36 -35 41 -85 41 -131v-75c0 -63 -17 -102 -44 -132
c-29 -33 -73 -54 -128 -54z" />
    <glyph glyph-name="C" unicode="C" horiz-adv-x="462" 
d="M320 186v54c0 14 12 25 26 25h35c14 0 25 -11 25 -25v-61c0 -63 -16 -102 -43 -132c-29 -33 -74 -54 -129 -54s-99 21 -129 54c-26 30 -43 69 -43 132v467c0 63 17 102 43 132c30 33 74 54 129 54s100 -21 129 -54c27 -30 43 -69 43 -132v-53c0 -14 -11 -25 -25 -25h-35
c-14 0 -26 11 -26 25v46c0 41 -6 71 -24 90c-16 17 -39 25 -62 25c-24 0 -45 -8 -61 -25c-19 -19 -25 -49 -25 -90v-453c0 -41 6 -71 25 -90c16 -17 37 -25 61 -25c23 0 46 8 62 25c18 19 24 49 24 90z" />
    <glyph glyph-name="D" unicode="D" 
d="M148 722v-619c0 -15 7 -22 22 -22h65c23 0 45 8 61 25c18 19 24 49 24 90v433c0 41 -5 71 -23 90c-16 17 -38 25 -61 25h-63c-17 0 -25 -7 -25 -22zM234 0h-146c-14 0 -26 11 -26 25v775c0 14 12 25 26 25h147c55 0 99 -21 128 -54c27 -30 43 -69 43 -132v-453
c0 -63 -17 -102 -44 -132c-29 -33 -73 -54 -128 -54z" />
    <glyph glyph-name="E" unicode="E" horiz-adv-x="367" 
d="M298 0h-210c-14 0 -26 11 -26 25v775c0 14 12 25 26 25h210c14 0 25 -11 25 -25v-32c0 -14 -11 -22 -25 -25h-128c-13 0 -22 -10 -22 -23v-239c0 -13 9 -23 22 -23h128c14 0 25 -11 25 -25v-32c0 -14 -11 -25 -25 -25h-128c-13 0 -22 -10 -22 -23v-248
c0 -13 9 -23 22 -23h128c14 0 25 -11 25 -25v-32c0 -14 -11 -25 -25 -25z" />
    <glyph glyph-name="F" unicode="F" horiz-adv-x="357" 
d="M62 25v775c0 14 12 25 26 25h210c14 0 25 -11 25 -25v-32c0 -14 -11 -22 -25 -25h-128c-13 0 -22 -10 -22 -23v-268c0 -13 9 -23 22 -23h128c14 0 25 -11 25 -25v-32c0 -14 -11 -25 -25 -25h-128c-13 0 -22 -10 -22 -23v-299c0 -14 -11 -25 -25 -25h-35
c-14 0 -26 11 -26 25z" />
    <glyph glyph-name="G" unicode="G" 
d="M220 -7c-39 0 -81 18 -104 41c-31 33 -54 64 -54 145v467c0 63 17 102 43 132c30 33 74 54 129 54s100 -21 129 -54c27 -30 43 -69 43 -132v-53c0 -14 -11 -25 -25 -25h-35c-14 0 -26 11 -26 25v46c0 41 -6 71 -24 90c-16 17 -39 25 -62 25c-24 0 -45 -8 -61 -25
c-19 -19 -25 -49 -25 -90v-453c0 -41 6 -71 25 -90c16 -17 37 -25 61 -25c23 0 46 8 62 25c18 19 24 49 24 90v138c0 12 -8 22 -22 22h-32c-14 0 -25 11 -25 25v33c0 14 11 25 25 25h115c14 0 25 -11 25 -25v-376c0 -14 -4 -21 -10 -26s-13 -7 -22 -7c-10 0 -19 5 -27 11
l-4 3c-8 6 -13 8 -23 8c-8 0 -21 -7 -39 -13s-36 -11 -61 -11z" />
    <glyph glyph-name="H" unicode="H" 
d="M62 25v775c0 14 12 25 26 25h35c14 0 25 -11 25 -25v-321c0 -15 7 -22 22 -22h127c13 0 23 9 23 22v321c0 14 12 25 26 25h35c14 0 25 -11 25 -25v-775c0 -14 -11 -25 -25 -25h-35c-14 0 -26 11 -26 25v329c0 13 -10 23 -23 23h-127c-13 0 -22 -10 -22 -23v-329
c0 -14 -11 -25 -25 -25h-35c-14 0 -26 11 -26 25z" />
    <glyph glyph-name="I" unicode="I" horiz-adv-x="228" 
d="M157 800v-775c0 -14 -11 -25 -25 -25h-35c-14 0 -26 11 -26 25v775c0 14 12 25 26 25h35c14 0 25 -11 25 -25z" />
    <glyph glyph-name="J" unicode="J" horiz-adv-x="325" 
d="M94 0h-28c-14 0 -26 11 -26 25v32c0 14 12 25 26 25h27c24 0 45 8 62 25c17 19 23 49 23 90v603c0 14 11 25 26 25h34c15 0 25 -11 25 -25v-614c0 -63 -17 -102 -43 -132c-29 -33 -71 -54 -126 -54z" />
    <glyph glyph-name="K" unicode="K" 
d="M406 800v-226c0 -46 -5 -100 -41 -135l-8 -8c-6 -6 -8 -11 -8 -16s2 -10 8 -16l8 -8c36 -35 41 -87 41 -133v-233c0 -14 -11 -25 -25 -25h-35c-14 0 -26 11 -26 25v236c0 41 -6 71 -24 90c-16 17 -38 26 -62 26h-65c-13 0 -21 -10 -21 -23v-329c0 -14 -11 -25 -25 -25
h-35c-14 0 -26 11 -26 25v775c0 14 12 25 26 25h35c14 0 25 -11 25 -25v-321c0 -15 7 -22 22 -22h64c23 0 46 8 62 25c18 19 24 49 24 90v228c0 14 12 25 26 25h35c14 0 25 -11 25 -25z" />
    <glyph glyph-name="L" unicode="L" horiz-adv-x="353" 
d="M148 800v-695c0 -13 9 -23 22 -23h120c14 0 25 -11 25 -25v-32c0 -14 -11 -25 -25 -25h-202c-14 0 -26 11 -26 25v775c0 14 12 25 26 25h35c14 0 25 -11 25 -25z" />
    <glyph glyph-name="M" unicode="M" horiz-adv-x="708" 
d="M397 645v-620c0 -14 -11 -25 -25 -25h-35c-14 0 -26 11 -26 25v620c0 39 -7 67 -24 85c-15 17 -36 24 -58 24s-42 -7 -58 -24c-18 -18 -23 -46 -23 -85v-620c0 -14 -11 -25 -25 -25h-35c-14 0 -26 11 -26 25v770c0 14 4 21 11 26c6 5 13 7 21 7c10 0 19 -4 28 -10l4 -3
c8 -6 13 -8 22 -8c8 0 20 8 41 15c16 5 36 10 56 10c30 0 63 -9 98 -40c3 -4 8 -6 14 -6c5 0 10 2 16 6c35 31 73 40 116 40c36 0 82 -16 110 -47c26 -28 47 -68 47 -137v-623c0 -14 -11 -25 -25 -25h-35c-14 0 -26 11 -26 25v620c0 39 -7 67 -24 85c-15 17 -36 24 -58 24
s-42 -7 -58 -24c-18 -18 -23 -46 -23 -85z" />
    <glyph glyph-name="N" unicode="N" 
d="M320 25v614c0 41 -7 71 -25 90c-16 17 -38 25 -61 25c-24 0 -45 -8 -61 -25c-19 -19 -25 -49 -25 -90v-614c0 -14 -11 -25 -25 -25h-35c-14 0 -26 11 -26 25v770c0 14 4 21 11 26c6 5 13 7 21 7c10 0 19 -4 28 -10l4 -3c8 -6 13 -8 22 -8c8 0 21 7 42 14
c16 5 39 11 63 11c37 0 79 -15 108 -46c27 -28 45 -70 45 -139v-622c0 -14 -11 -25 -25 -25h-35c-14 0 -26 11 -26 25z" />
    <glyph glyph-name="O" unicode="O" 
d="M234 71c24 0 45 8 61 25c19 19 25 49 25 90v453c0 41 -6 71 -25 90c-16 17 -37 25 -61 25s-45 -8 -61 -25c-19 -19 -25 -49 -25 -90v-453c0 -41 6 -71 25 -90c16 -17 37 -25 61 -25zM234 -7c-55 0 -99 21 -129 54c-26 30 -43 69 -43 132v467c0 63 17 102 43 132
c30 33 74 54 129 54s99 -21 129 -54c26 -30 43 -69 43 -132v-467c0 -63 -17 -102 -43 -132c-30 -33 -74 -54 -129 -54z" />
    <glyph glyph-name="P" unicode="P" horiz-adv-x="465" 
d="M320 535v94c0 41 -5 71 -23 90c-16 17 -40 25 -63 25h-61c-17 0 -25 -7 -25 -22v-283c0 -15 7 -22 22 -22h65c23 0 45 11 61 28c18 19 24 49 24 90zM123 0h-35c-14 0 -26 11 -26 25v775c0 14 12 25 26 25h146c55 0 100 -21 129 -54c27 -30 43 -69 43 -132v-117
c0 -63 -17 -102 -44 -132c-29 -33 -73 -54 -128 -54h-64c-13 0 -22 -10 -22 -23v-288c0 -14 -11 -25 -25 -25z" />
    <glyph glyph-name="Q" unicode="Q" 
d="M320 196v443c0 41 -6 71 -24 90c-16 17 -39 25 -62 25c-24 0 -45 -8 -61 -25c-19 -19 -25 -49 -25 -90v-443c0 -41 6 -71 25 -90c16 -17 37 -25 61 -25c23 0 46 8 62 25c18 19 24 49 24 90zM445 0h-210c-55 0 -99 21 -129 54c-26 30 -44 69 -44 132v460
c0 63 17 102 43 132c30 33 74 54 129 54s100 -21 129 -54c27 -30 43 -69 43 -132v-434c0 -48 -13 -72 -31 -97c-3 -4 -4 -7 -4 -12c0 -12 11 -21 23 -21h51c14 0 25 -11 25 -25v-32c0 -14 -11 -25 -25 -25z" />
    <glyph glyph-name="R" unicode="R" 
d="M404 241v-216c0 -14 -11 -25 -25 -25h-35c-14 0 -26 11 -26 25v216c0 41 -6 71 -24 90c-16 17 -38 26 -62 26h-60c-13 0 -22 -10 -22 -23v-309c0 -14 -11 -25 -25 -25h-35c-14 0 -26 11 -26 25v775c0 14 12 25 26 25h144c55 0 98 -21 127 -54c27 -30 43 -69 43 -132v-88
c0 -46 -5 -96 -41 -131l-8 -8c-6 -6 -8 -11 -8 -16s2 -10 8 -16l8 -8c36 -35 41 -85 41 -131zM173 437h59c23 0 46 8 62 25c18 19 24 49 24 90v77c0 41 -5 71 -23 90c-16 17 -38 25 -61 25h-58c-17 0 -26 -7 -26 -22v-263c0 -15 8 -22 23 -22z" />
    <glyph glyph-name="S" unicode="S" horiz-adv-x="463" 
d="M315 593v49c0 40 -7 69 -24 88c-17 16 -38 24 -60 24c-23 0 -44 -8 -61 -24c-17 -19 -23 -48 -23 -88v-74c0 -35 4 -55 15 -70c9 -14 23 -25 54 -40l79 -36c34 -15 60 -33 79 -60c20 -28 29 -60 29 -116v-70c0 -68 -22 -115 -59 -145c-30 -24 -68 -38 -112 -38
c-55 0 -99 21 -129 54c-26 30 -43 69 -43 132v61c0 14 12 25 26 25h35c14 0 25 -11 25 -25v-54c0 -41 6 -71 23 -90c17 -17 37 -25 65 -25c22 0 44 8 60 24c17 19 23 48 23 88v57c0 35 -4 55 -15 71c-9 13 -23 25 -55 40l-79 35c-33 15 -59 36 -78 63c-19 28 -29 59 -29 115
v85c0 68 23 115 59 145c30 24 69 38 113 38c54 0 98 -21 126 -53c27 -30 42 -69 42 -131v-55c0 -14 -11 -25 -26 -25h-34c-15 0 -26 11 -26 25z" />
    <glyph glyph-name="T" unicode="T" horiz-adv-x="412" 
d="M54 825h305c14 0 25 -11 25 -25v-32c0 -14 -11 -25 -25 -25h-88c-13 0 -22 -11 -22 -24v-694c0 -14 -11 -25 -26 -25h-34c-15 0 -26 11 -26 25v694c0 13 -9 24 -22 24h-87c-14 0 -26 11 -26 25v32c0 14 12 25 26 25z" />
    <glyph glyph-name="U" unicode="U" 
d="M320 186v614c0 14 12 25 26 25h35c14 0 25 -11 25 -25v-621c0 -63 -16 -102 -43 -132c-29 -33 -74 -54 -129 -54s-99 21 -129 54c-26 30 -43 69 -43 132v621c0 14 12 25 26 25h35c14 0 25 -11 25 -25v-614c0 -41 6 -71 25 -90c16 -17 37 -25 61 -25c23 0 46 8 62 25
c18 19 24 49 24 90z" />
    <glyph glyph-name="V" unicode="V" horiz-adv-x="501" 
d="M295 0h-92c-25 0 -44 16 -48 42l-103 732c-2 11 -4 21 -4 27c0 10 8 24 26 24h35c16 0 24 -9 26 -24l93 -699c2 -15 9 -23 22 -23s20 8 22 23l94 699c2 15 12 24 27 24h34c17 0 25 -14 25 -24c0 -6 -2 -16 -4 -27l-105 -732c-4 -26 -23 -42 -48 -42z" />
    <glyph glyph-name="W" unicode="W" horiz-adv-x="708" 
d="M63 177l-1 623c0 14 12 25 26 25h35c14 0 25 -11 25 -25v-620c0 -39 5 -67 23 -85c16 -17 36 -24 58 -24s43 7 58 24c17 18 24 46 24 85v620c0 14 12 25 26 25h35c14 0 25 -11 25 -25v-620c0 -39 5 -67 23 -85c16 -17 36 -24 58 -24s43 7 58 24c17 18 24 46 24 85v620
c0 14 12 25 26 25h35c14 0 25 -11 25 -25v-623c0 -69 -24 -109 -50 -137c-29 -31 -71 -47 -107 -47c-39 0 -78 9 -111 34l-8 6c-6 4 -11 6 -15 6c-5 0 -10 -2 -15 -6l-7 -6c-33 -29 -73 -34 -112 -34c-36 0 -82 16 -111 47c-26 28 -47 68 -47 137z" />
    <glyph glyph-name="X" unicode="X" 
d="M234 378c-25 0 -45 -9 -61 -26c-19 -19 -25 -49 -25 -90v-237c0 -14 -11 -25 -25 -25h-35c-14 0 -26 11 -26 25v234c0 46 5 96 41 131l8 8c6 6 8 11 8 16s-2 10 -8 16l-8 8c-36 35 -41 85 -41 131v231c0 14 12 25 26 25h35c14 0 25 -11 25 -25v-229c0 -41 6 -71 25 -90
c16 -17 37 -25 61 -25s45 8 61 25c19 19 25 49 25 90v229c0 14 11 25 25 25h35c14 0 26 -11 26 -25v-231c0 -46 -5 -96 -41 -131l-8 -8c-6 -6 -8 -11 -8 -16s2 -10 8 -16l8 -8c36 -35 41 -85 41 -131v-234c0 -14 -12 -25 -26 -25h-35c-14 0 -25 11 -25 25v237
c0 41 -6 71 -25 90c-16 17 -36 26 -61 26z" />
    <glyph glyph-name="Y" unicode="Y" 
d="M192 25v284c0 9 -5 17 -14 22l-12 5c-68 30 -104 85 -104 176v288c0 14 12 25 26 25h35c14 0 25 -11 25 -25v-282c0 -41 6 -71 25 -90c16 -17 37 -25 61 -25c23 0 46 8 62 25c18 19 24 49 24 90v282c0 14 12 25 26 25h35c14 0 25 -11 25 -25v-288
c0 -98 -51 -158 -102 -176l-11 -4c-8 -4 -15 -10 -15 -21v-286c0 -14 -12 -25 -26 -25h-35c-14 0 -25 11 -25 25z" />
    <glyph glyph-name="Z" unicode="Z" horiz-adv-x="406" 
d="M54 25v24c0 21 3 34 8 48l181 609c1 2 3 12 3 14c0 12 -8 22 -23 22h-139c-15 0 -26 11 -26 25v33c0 14 11 25 26 25h237c15 0 26 -11 26 -25v-34c0 -9 -4 -25 -8 -38l-181 -609c-1 -2 -3 -12 -3 -14c0 -12 8 -22 22 -22h148c15 0 26 -11 26 -25v-33
c0 -14 -11 -25 -26 -25h-245c-15 0 -26 11 -26 25z" />
    <glyph glyph-name="bracketleft" unicode="[" horiz-adv-x="316" 
d="M136 825v-890c0 -13 9 -23 22 -23h81c14 0 25 -11 25 -25v-27c0 -14 -11 -25 -25 -25h-162c-14 0 -25 11 -25 25v1040c0 14 11 25 25 25h162c14 0 25 -11 25 -25v-27c0 -14 -11 -22 -25 -25h-81c-13 0 -22 -10 -22 -23z" />
    <glyph glyph-name="backslash" unicode="\" horiz-adv-x="348" 
d="M106 843l197 -854c2 -9 2 -15 2 -18c0 -8 -2 -14 -7 -17c-4 -3 -9 -4 -15 -4h-17c-8 0 -13 1 -17 6c-3 3 -5 9 -7 16l-197 854c-2 9 -3 15 -3 18c0 7 2 13 6 16s9 5 16 5h17c8 0 14 -2 18 -7c3 -3 5 -8 7 -15z" />
    <glyph glyph-name="bracketright" unicode="]" horiz-adv-x="316" 
d="M180 -65v890c0 13 -9 23 -22 23h-81c-14 3 -25 11 -25 25v27c0 14 11 25 25 25h162c14 0 25 -11 25 -25v-1040c0 -14 -11 -25 -25 -25h-162c-14 0 -25 11 -25 25v27c0 14 11 25 25 25h81c13 0 22 10 22 23z" />
    <glyph glyph-name="asciicircum" unicode="^" horiz-adv-x="549" 
d="M274 527c-13 0 -18 -10 -22 -23l-83 -251c-5 -17 -12 -22 -25 -22h-47c-15 0 -22 7 -22 21c0 5 2 14 3 18l107 300c12 34 30 47 63 47h52c33 0 52 -9 63 -47l107 -300c1 -4 3 -13 3 -18c0 -14 -7 -21 -22 -21h-47c-13 0 -20 5 -25 22l-83 251c-4 13 -9 23 -22 23z" />
    <glyph glyph-name="underscore" unicode="_" horiz-adv-x="549" 
d="M75 -68h398c14 0 25 -11 25 -25v-32c0 -14 -11 -25 -25 -25h-398c-14 0 -25 11 -25 25v32c0 14 11 25 25 25z" />
    <glyph glyph-name="grave" unicode="`" horiz-adv-x="458" 
d="M274 690l-132 94c-8 7 -9 13 -9 20c0 11 8 21 22 21h43c21 0 28 -4 42 -20l63 -79c10 -11 12 -16 12 -22c0 -12 -8 -22 -21 -22c-6 0 -13 2 -20 8z" />
    <glyph glyph-name="a" unicode="a" horiz-adv-x="453" 
d="M140 197v-28c0 -28 7 -50 20 -68s33 -30 64 -30c40 0 84 25 84 83v116c0 13 -9 23 -22 23h-64c-32 0 -52 -13 -65 -31c-12 -17 -17 -37 -17 -65zM392 456v-426c0 -14 -4 -21 -10 -26s-13 -7 -21 -7c-10 0 -19 4 -27 10l-4 3c-8 6 -13 8 -22 8c-8 0 -21 -8 -39 -14
c-17 -6 -34 -11 -58 -11c-99 0 -158 85 -158 185v16c0 58 24 113 68 145c25 19 65 30 108 30h57c13 0 22 10 22 23v57c0 41 -6 71 -24 90c-16 17 -37 25 -60 25s-44 -8 -60 -25s-24 -45 -24 -80v-1c0 -14 -11 -25 -25 -25h-34c-14 0 -25 11 -25 25v7c0 57 17 94 42 123
c29 33 72 54 126 54s97 -21 126 -54c26 -30 42 -69 42 -132z" />
    <glyph glyph-name="b" unicode="b" horiz-adv-x="455" 
d="M145 449v-263c0 -41 6 -71 24 -90c16 -17 37 -25 60 -25s44 8 60 25c18 19 24 49 24 90v263c0 41 -6 71 -24 90c-16 17 -37 25 -60 25s-44 -8 -60 -25c-18 -19 -24 -49 -24 -90zM186 3c-20 7 -33 14 -41 14c-9 0 -14 -2 -22 -8l-4 -3c-8 -6 -17 -11 -27 -11
c-8 0 -15 2 -21 7s-10 12 -10 26v772c0 14 11 25 25 25h34c14 0 25 -11 25 -25v-120c0 -15 -1 -16 -1 -28c0 -13 9 -23 22 -23c8 0 14 2 23 5c17 5 34 8 51 8c45 0 86 -19 115 -53c26 -30 42 -70 42 -133v-277c0 -63 -15 -103 -41 -133c-31 -36 -72 -53 -110 -53
c-25 0 -46 6 -60 10z" />
    <glyph glyph-name="c" unicode="c" horiz-adv-x="448" 
d="M229 564c-23 0 -44 -8 -60 -25c-18 -19 -24 -49 -24 -90v-263c0 -41 6 -71 24 -90c16 -17 37 -25 60 -25s44 8 60 25c18 19 24 46 24 87v11c0 14 11 25 25 25h34c14 0 25 -11 25 -25v-15c0 -63 -16 -102 -42 -132c-29 -33 -72 -54 -126 -54s-97 21 -126 54
c-26 30 -42 69 -42 132v277c0 63 16 102 42 132c29 33 72 54 126 54s97 -21 126 -54c25 -29 42 -66 42 -123v-23c0 -14 -11 -25 -25 -25h-34c-14 0 -25 11 -25 25v22c0 33 -9 59 -24 75c-16 17 -37 25 -60 25z" />
    <glyph glyph-name="d" unicode="d" horiz-adv-x="455" 
d="M310 186v263c0 41 -6 71 -24 90c-16 17 -37 25 -60 25s-44 -8 -60 -25c-18 -19 -24 -49 -24 -90v-263c0 -41 6 -71 24 -90c16 -17 37 -25 60 -25s44 8 60 25c18 19 24 49 24 90zM269 3c-14 -4 -35 -10 -60 -10c-38 0 -79 17 -110 53c-26 30 -41 70 -41 133v277
c0 63 16 103 42 133c29 34 70 53 115 53c17 0 34 -3 51 -8c9 -3 15 -5 23 -5c13 0 22 10 22 23c0 12 -1 13 -1 28v120c0 14 11 25 25 25h34c14 0 25 -11 25 -25v-772c0 -14 -4 -21 -10 -26s-13 -7 -21 -7c-10 0 -19 5 -27 11l-4 3c-8 6 -13 8 -22 8c-8 0 -21 -7 -41 -14z
" />
    <glyph glyph-name="e" unicode="e" horiz-adv-x="457" 
d="M145 449v-58c0 -15 7 -22 22 -22h123c13 0 23 10 23 23v57c0 41 -6 71 -24 90c-16 17 -37 25 -60 25s-44 -8 -60 -25c-18 -19 -24 -49 -24 -90zM371 293h-204c-13 0 -22 -9 -22 -22v-85c0 -41 6 -71 24 -90c16 -17 37 -25 60 -25s44 8 60 25c18 19 24 49 24 90v8
c0 14 11 25 25 25h34c14 0 25 -11 25 -25v-15c0 -63 -16 -102 -42 -132c-29 -33 -72 -54 -126 -54s-97 21 -126 54c-26 30 -42 69 -42 132v277c0 63 16 102 42 132c29 33 72 54 126 54s97 -21 126 -54c26 -30 42 -69 42 -132v-137c0 -14 -12 -26 -26 -26z" />
    <glyph glyph-name="f" unicode="f" horiz-adv-x="342" 
d="M51 635h41c13 0 22 10 22 23v13c0 26 2 47 6 64c6 23 16 40 30 54c17 16 43 36 110 36h31c14 0 25 -11 25 -25v-29c0 -14 -11 -25 -25 -25h-23c-34 0 -48 -6 -57 -16s-13 -28 -13 -49v-23c0 -13 9 -23 22 -23h71c14 0 25 -11 25 -25v-29c0 -14 -11 -25 -25 -25h-71
c-13 0 -22 -11 -22 -24v-507c0 -14 -11 -25 -25 -25h-34c-14 0 -25 11 -25 25v507c0 13 -9 24 -22 24h-41c-14 0 -25 11 -25 25v29c0 14 11 25 25 25z" />
    <glyph glyph-name="g" unicode="g" horiz-adv-x="456" 
d="M145 449v-203c0 -41 6 -71 24 -90c16 -17 37 -25 60 -25s44 8 60 25c18 19 24 49 24 90v203c0 41 -6 71 -24 90c-16 17 -37 25 -60 25s-44 -8 -60 -25c-18 -19 -24 -49 -24 -90zM397 605v-588c0 -49 -13 -101 -48 -138c-32 -33 -75 -50 -120 -50s-88 17 -120 50
c-27 28 -46 68 -46 106v3c0 14 11 25 25 25h31c16 0 25 -9 28 -26l1 -5c4 -21 8 -38 21 -51c16 -16 37 -24 60 -24s44 8 60 24c18 19 24 46 24 85v31c0 13 -8 22 -21 22c-8 0 -16 -5 -25 -7l-11 -3c-13 -4 -31 -6 -45 -6c-31 0 -72 14 -103 46c-35 37 -47 85 -47 142v215
c0 63 15 104 41 134c31 36 72 52 110 52c28 0 46 -7 60 -11c20 -7 33 -15 41 -15c9 0 14 2 22 8l4 3c8 6 17 11 27 11c8 0 15 -2 21 -7s10 -12 10 -26z" />
    <glyph glyph-name="h" unicode="h" horiz-adv-x="458" 
d="M61 25v775c0 14 11 25 25 25h34c14 0 25 -11 25 -25v-97c0 -23 -2 -34 -2 -49c0 -17 9 -30 22 -30c8 0 14 2 23 6l10 4c11 4 26 8 50 8c36 0 76 -15 105 -46c26 -28 44 -70 44 -139v-432c0 -14 -11 -25 -25 -25h-34c-14 0 -25 11 -25 25v424c0 41 -6 71 -24 90
c-16 17 -37 25 -60 25s-44 -8 -60 -25c-18 -19 -24 -49 -24 -90v-424c0 -14 -11 -25 -25 -25h-34c-14 0 -25 11 -25 25z" />
    <glyph glyph-name="i" unicode="i" horiz-adv-x="223" 
d="M69 25v585c0 14 11 25 25 25h34c14 0 25 -11 25 -25v-585c0 -14 -11 -25 -25 -25h-34c-14 0 -25 11 -25 25zM66 760v40c0 14 11 25 25 25h40c14 0 25 -11 25 -25v-40c0 -14 -11 -25 -25 -25h-40c-14 0 -25 11 -25 25z" />
    <glyph glyph-name="j" unicode="j" horiz-adv-x="223" 
d="M70 -14v624c0 14 11 25 25 25h34c14 0 25 -11 25 -25v-608c0 -60 -12 -100 -36 -127c-25 -27 -61 -40 -115 -40h-4c-14 0 -25 11 -25 25v29c0 14 11 25 25 25h9c23 0 40 7 49 19s13 34 13 53zM67 760v40c0 14 11 25 25 25h40c14 0 25 -11 25 -25v-40
c0 -14 -11 -25 -25 -25h-40c-14 0 -25 11 -25 25z" />
    <glyph glyph-name="k" unicode="k" horiz-adv-x="460" 
d="M397 610v-121c0 -46 -5 -96 -40 -131l-8 -8c-6 -6 -8 -11 -8 -16s2 -10 8 -16l8 -8c35 -35 40 -85 40 -131v-154c0 -14 -11 -25 -25 -25h-34c-14 0 -25 11 -25 25v157c0 41 -6 71 -24 90c-16 17 -37 26 -61 26h-62c-13 0 -21 -10 -21 -23v-250c0 -14 -11 -25 -25 -25h-34
c-14 0 -25 11 -25 25v775c0 14 11 25 25 25h34c14 0 25 -11 25 -25v-404c0 -15 7 -22 22 -22h61c23 0 45 8 61 25c18 19 24 49 24 90v121c0 14 11 25 25 25h34c14 0 25 -11 25 -25z" />
    <glyph glyph-name="l" unicode="l" horiz-adv-x="223" 
d="M153 800v-775c0 -14 -11 -25 -25 -25h-34c-14 0 -25 11 -25 25v775c0 14 11 25 25 25h34c14 0 25 -11 25 -25z" />
    <glyph glyph-name="m" unicode="m" horiz-adv-x="693" 
d="M632 458v-433c0 -14 -19 -25 -33 -25h-26c-14 0 -25 11 -25 25v431c0 38 -5 66 -22 84c-15 16 -35 23 -57 23s-42 -7 -57 -23c-17 -18 -24 -46 -24 -84v-431c0 -14 -11 -25 -25 -25h-34c-14 0 -25 11 -25 25v431c0 38 -5 66 -22 84c-15 16 -35 23 -57 23s-42 -7 -57 -23
c-17 -18 -23 -46 -23 -84v-431c0 -14 -11 -25 -25 -25h-34c-14 0 -25 11 -25 25v459v121c0 14 4 21 10 26s13 7 21 7c10 0 19 -5 27 -11l4 -3c8 -6 13 -8 22 -8c8 0 19 8 39 15c16 5 35 11 55 11c29 0 62 -9 96 -40c4 -4 8 -6 14 -6c5 0 10 2 15 6c36 31 72 40 114 40
c35 0 80 -16 108 -47c26 -28 46 -68 46 -137z" />
    <glyph glyph-name="n" unicode="n" horiz-adv-x="458" 
d="M313 25v424c0 41 -6 71 -24 90c-16 17 -37 25 -60 25s-44 -8 -60 -25c-18 -19 -24 -49 -24 -90v-424c0 -14 -11 -25 -25 -25h-34c-14 0 -25 11 -25 25v580c0 14 4 21 10 26s13 7 21 7c10 0 19 -5 27 -11l4 -3c8 -6 13 -8 22 -8c8 0 21 8 41 15c16 5 38 11 62 11
c36 0 76 -15 105 -46c26 -28 44 -70 44 -139v-432c0 -14 -11 -25 -25 -25h-34c-14 0 -25 11 -25 25z" />
    <glyph glyph-name="o" unicode="o" horiz-adv-x="458" 
d="M145 449v-263c0 -41 6 -71 24 -90c16 -17 37 -25 60 -25s44 8 60 25c18 19 24 49 24 90v263c0 41 -6 71 -24 90c-16 17 -37 25 -60 25s-44 -8 -60 -25c-18 -19 -24 -49 -24 -90zM397 456v-277c0 -63 -16 -102 -42 -132c-29 -33 -72 -54 -126 -54s-97 21 -126 54
c-26 30 -42 69 -42 132v277c0 63 16 102 42 132c29 33 72 54 126 54s97 -21 126 -54c26 -30 42 -69 42 -132z" />
    <glyph glyph-name="p" unicode="p" horiz-adv-x="455" 
d="M145 449v-263c0 -41 6 -71 24 -90c16 -17 37 -25 60 -25s44 8 60 25c18 19 24 49 24 90v263c0 41 -6 71 -24 90c-16 17 -37 25 -60 25s-44 -8 -60 -25c-18 -19 -24 -49 -24 -90zM186 632c14 4 35 10 60 10c38 0 79 -17 110 -53c26 -30 41 -70 41 -133v-277
c0 -63 -16 -103 -42 -133c-29 -34 -70 -53 -115 -53c-17 0 -34 3 -51 8c-9 3 -15 5 -23 5c-13 0 -22 -10 -22 -23c0 -12 1 -13 1 -28v-95c0 -14 -11 -25 -25 -25h-34c-14 0 -25 11 -25 25v747c0 14 4 21 10 26s13 7 21 7c10 0 19 -5 27 -11l4 -3c8 -6 13 -8 22 -8
c8 0 21 7 41 14z" />
    <glyph glyph-name="q" unicode="q" horiz-adv-x="455" 
d="M310 186v263c0 41 -6 71 -24 90c-16 17 -37 25 -60 25s-44 -8 -60 -25c-18 -19 -24 -49 -24 -90v-263c0 -41 6 -71 24 -90c16 -17 37 -25 60 -25s44 8 60 25c18 19 24 49 24 90zM269 632c20 -7 33 -14 41 -14c9 0 14 2 22 8l4 3c8 6 17 11 27 11c8 0 15 -2 21 -7
s10 -12 10 -26v-747c0 -14 -11 -25 -25 -25h-34c-14 0 -25 11 -25 25v95c0 15 1 16 1 28c0 13 -9 23 -22 23c-8 0 -14 -2 -23 -5c-17 -5 -34 -8 -51 -8c-45 0 -86 19 -115 53c-26 30 -42 70 -42 133v277c0 63 15 103 41 133c31 36 72 53 110 53c25 0 46 -6 60 -10z" />
    <glyph glyph-name="r" unicode="r" horiz-adv-x="315" 
d="M145 447v-422c0 -14 -11 -25 -25 -25h-34c-14 0 -25 11 -25 25v580c0 14 4 21 10 26s13 7 21 7c10 0 19 -5 27 -11l4 -3c8 -6 13 -8 22 -8c8 0 21 6 41 13c18 6 39 10 60 10h18c15 0 26 -9 26 -25v-33c0 -14 -11 -25 -25 -25h-29c-34 0 -55 -7 -70 -23
c-16 -18 -21 -47 -21 -86z" />
    <glyph glyph-name="s" unicode="s" horiz-adv-x="451" 
d="M224 564c-23 0 -43 -7 -59 -23c-15 -15 -21 -38 -21 -72v-2c0 -18 5 -41 13 -54s19 -22 46 -34l70 -31c56 -25 76 -43 93 -66c17 -24 26 -52 26 -93v-26c0 -107 -73 -170 -167 -170c-54 0 -95 21 -124 54c-26 30 -42 69 -42 132v15c0 14 11 25 25 25h34
c14 0 25 -11 25 -25v-1c0 -41 6 -78 23 -97c16 -17 36 -25 59 -25s45 7 61 23c15 15 23 38 23 72v4c0 25 -5 49 -14 62c-8 12 -22 26 -49 38l-70 31c-56 25 -73 42 -90 65c-17 24 -25 56 -25 97v9c0 107 69 170 163 170c54 0 97 -21 126 -54c25 -29 42 -66 42 -123v-7
c0 -14 -11 -25 -25 -25h-34c-14 0 -25 11 -25 25c0 35 -8 64 -24 81s-37 25 -60 25z" />
    <glyph glyph-name="t" unicode="t" horiz-adv-x="336" 
d="M88 556h-37c-14 0 -25 11 -25 25v29c0 14 11 25 25 25h37c13 0 22 11 22 24v70c0 14 11 25 25 25h34c14 0 25 -11 25 -25v-70c0 -13 9 -24 22 -24h69c14 0 25 -11 25 -25v-29c0 -14 -11 -25 -25 -25h-69c-13 0 -22 -10 -22 -23v-403c0 -19 5 -32 13 -39
c6 -6 18 -12 32 -12h46c14 0 25 -11 25 -25v-29c0 -14 -11 -25 -25 -25h-34c-54 0 -89 11 -112 36c-19 21 -29 50 -29 98v399c0 13 -9 23 -22 23z" />
    <glyph glyph-name="u" unicode="u" horiz-adv-x="458" 
d="M145 610v-424c0 -41 6 -71 24 -90c16 -17 37 -25 60 -25s44 8 60 25c18 19 24 49 24 90v424c0 14 11 25 25 25h34c14 0 25 -11 25 -25v-582c0 -14 -4 -21 -10 -26s-13 -7 -21 -7c-10 0 -19 5 -27 11l-4 3c-8 6 -13 8 -22 8c-8 0 -21 -7 -41 -14c-16 -5 -38 -10 -62 -10
c-36 0 -76 15 -105 46c-26 28 -44 70 -44 139v432c0 14 11 25 25 25h34c14 0 25 -11 25 -25z" />
    <glyph glyph-name="v" unicode="v" horiz-adv-x="480" 
d="M283 0h-86c-25 0 -43 16 -47 42l-94 542c-2 11 -4 21 -4 27c0 10 8 24 25 24h35c15 0 23 -9 25 -24l82 -509c2 -15 9 -23 22 -23s20 8 22 23l81 509c2 15 11 24 26 24h33c17 0 25 -14 25 -24c0 -6 -2 -16 -4 -27l-94 -542c-4 -26 -22 -42 -47 -42z" />
    <glyph glyph-name="w" unicode="w" horiz-adv-x="693" 
d="M632 610v-438c0 -67 -24 -106 -49 -133c-28 -30 -70 -46 -105 -46s-67 6 -98 25c-6 4 -13 9 -19 14c-5 4 -9 6 -14 6s-10 -2 -15 -6c-6 -5 -12 -9 -17 -13c-32 -19 -65 -26 -100 -26s-80 16 -108 46c-26 27 -46 66 -46 133v438c0 14 11 25 25 25h34c14 0 25 -11 25 -25
v-431c0 -38 6 -66 23 -84c15 -16 35 -23 57 -23s42 7 57 23c17 18 22 46 22 84v431c0 14 11 25 25 25h34c14 0 25 -11 25 -25v-431c0 -38 7 -66 24 -84c15 -16 35 -23 57 -23s42 7 57 23c17 18 22 46 22 84v431c0 14 11 25 25 25h26c14 0 33 -11 33 -25z" />
    <glyph glyph-name="x" unicode="x" horiz-adv-x="458" 
d="M61 489v121c0 14 11 25 25 25h34c14 0 25 -11 25 -25v-122c0 -41 6 -71 24 -90c16 -17 37 -25 60 -25s44 8 60 25c18 19 24 49 24 90v122c0 14 11 25 25 25h34c14 0 25 -11 25 -25v-121c0 -46 -5 -96 -40 -131l-8 -8c-6 -6 -8 -11 -8 -16s2 -10 8 -16l8 -8
c35 -35 40 -85 40 -131v-154c0 -14 -11 -25 -25 -25h-34c-14 0 -25 11 -25 25v158c0 41 -6 71 -24 90c-16 17 -36 26 -60 26s-44 -9 -60 -26c-18 -19 -24 -49 -24 -90v-158c0 -14 -11 -25 -25 -25h-34c-14 0 -25 11 -25 25v154c0 46 5 96 40 131l8 8c6 6 8 11 8 16
s-2 10 -8 16l-8 8c-35 35 -40 85 -40 131z" />
    <glyph glyph-name="y" unicode="y" horiz-adv-x="458" 
d="M61 241v369c0 14 11 25 25 25h34c14 0 25 -11 25 -25v-364c0 -41 6 -71 24 -90c16 -17 37 -25 60 -25s44 8 60 25c18 19 24 49 24 90v364c0 14 11 25 25 25h34c14 0 25 -11 25 -25v-593c0 -49 -13 -101 -48 -138c-32 -33 -75 -50 -120 -50s-88 17 -120 50
c-27 28 -46 68 -46 106v3c0 14 11 25 25 25h31c16 0 25 -9 28 -26l1 -5c4 -21 8 -38 21 -51c16 -16 37 -24 60 -24s44 8 60 24c18 19 24 46 24 85v30c0 13 -8 23 -21 23c-8 0 -16 -5 -25 -7l-11 -3c-13 -4 -31 -6 -45 -6c-31 0 -72 14 -103 46c-35 37 -47 85 -47 142z" />
    <glyph glyph-name="z" unicode="z" horiz-adv-x="386" 
d="M52 25v24c0 21 3 34 8 48l162 423c1 2 3 12 3 14c0 12 -8 22 -22 22h-123c-14 0 -25 11 -25 25v29c0 14 11 25 25 25h222c14 0 25 -11 25 -25v-34c0 -9 -2 -22 -8 -38l-163 -423c-1 -2 -3 -12 -3 -14c0 -12 8 -22 22 -22h135c14 0 25 -11 25 -25v-29
c0 -14 -11 -25 -25 -25h-233c-14 0 -25 11 -25 25z" />
    <glyph glyph-name="dagger" unicode="&#x2020;" horiz-adv-x="457" 
d="M422 560v-20c0 -14 -11 -25 -25 -25h-111c-13 0 -22 -6 -22 -19v-596c0 -14 -11 -25 -25 -25h-24c-14 0 -25 11 -25 25v596c0 13 -9 19 -22 19h-112c-14 0 -25 11 -25 25v20c0 14 11 25 25 25h112c13 0 22 7 22 20v195c0 14 11 25 25 25h24c14 0 25 -11 25 -25v-195
c0 -13 9 -20 22 -20h111c14 0 25 -11 25 -25z" />
    <glyph glyph-name="degree" unicode="&#xb0;" horiz-adv-x="344" 
d="M102 686c0 -39 31 -72 70 -72c38 0 68 33 68 72s-30 72 -68 72c-39 0 -70 -33 -70 -72zM26 686c0 80 65 146 146 146c80 0 145 -66 145 -146s-65 -146 -145 -146c-81 0 -146 66 -146 146z" />
    <glyph glyph-name="cent" unicode="&#xa2;" 
d="M62 274v277c0 68 23 115 60 145c15 12 32 21 52 28c10 4 17 11 17 21v62c0 14 11 25 25 25h34c14 0 26 -11 26 -25v-62c0 -10 7 -17 18 -21c26 -9 48 -24 65 -43c27 -30 42 -69 42 -131v-9c0 -14 -11 -25 -25 -25h-35c-14 0 -26 11 -26 25v8c0 40 -6 69 -23 88
c-16 16 -38 24 -60 24c-23 0 -44 -8 -60 -24c-18 -19 -24 -48 -24 -88v-273c0 -40 6 -69 24 -88c16 -16 37 -24 60 -24c22 0 44 8 60 24c17 19 23 48 23 88v8c0 14 12 25 26 25h35c14 0 25 -11 25 -25v-9c0 -62 -15 -101 -42 -131c-17 -19 -39 -34 -65 -43
c-11 -4 -18 -11 -18 -21v-62c0 -14 -12 -25 -26 -25h-34c-14 0 -25 11 -25 25v62c0 10 -7 17 -17 21c-20 7 -37 16 -52 28c-37 30 -60 77 -60 145z" />
    <glyph glyph-name="sterling" unicode="&#xa3;" horiz-adv-x="509" 
d="M58 25v31c0 12 3 19 14 30l12 12c30 29 33 77 33 118v100c0 13 -9 19 -23 19h-20c-14 0 -26 11 -26 25v32c0 14 12 25 26 25h20c14 0 23 7 23 20v209c0 63 17 102 43 132c28 33 71 54 123 54c53 0 95 -21 123 -54c26 -30 41 -69 41 -132v-53c0 -14 -11 -25 -25 -25h-35
c-14 0 -25 11 -25 25v54c0 38 -6 66 -23 84c-15 16 -35 23 -57 23c-21 0 -42 -7 -56 -23c-17 -18 -24 -46 -24 -84v-210c0 -13 10 -20 23 -20h102c14 0 25 -11 25 -25v-32c0 -14 -11 -25 -25 -25h-102c-13 0 -23 -6 -23 -19v-77c0 -62 -4 -91 -19 -119c-3 -5 -5 -12 -5 -16
c0 -12 10 -22 22 -22h221c14 0 25 -11 25 -25v-32c0 -14 -11 -25 -25 -25h-338c-14 0 -25 11 -25 25z" />
    <glyph glyph-name="section" unicode="&#xa7;" horiz-adv-x="457" 
d="M321 382c0 41 -18 62 -50 78c-20 10 -30 15 -55 15c-43 0 -82 -35 -82 -90v-102c0 -44 20 -65 52 -81c20 -10 30 -15 55 -15c43 0 80 35 80 93v102zM401 373v-87c0 -65 -24 -101 -74 -126l-4 -2c-6 -3 -10 -10 -10 -18c0 -7 4 -13 9 -17c29 -23 40 -32 40 -90v-62
c0 -41 -16 -80 -45 -106c-23 -22 -55 -35 -91 -35c-41 0 -76 17 -100 44c-23 25 -36 58 -36 93v11c0 14 11 25 25 25h34c14 0 25 -11 25 -25v-21c0 -13 4 -24 11 -33c10 -12 26 -20 44 -20c24 0 55 16 55 53v58c0 49 -22 66 -58 81l-58 24c-91 38 -112 81 -112 169v87
c0 65 24 101 74 126l4 2c6 3 10 10 10 18c0 7 -4 13 -9 17c-29 23 -40 32 -40 90v62c0 42 18 81 48 108c23 20 53 33 88 33c36 0 67 -13 90 -34c29 -26 46 -63 46 -103v-11c0 -14 -11 -25 -25 -25h-34c-14 0 -25 11 -25 25v21c0 14 -5 27 -14 36c-10 10 -25 17 -41 17
c-24 0 -55 -16 -55 -53v-58c0 -49 22 -66 58 -81l58 -24c91 -38 112 -81 112 -169z" />
    <glyph glyph-name="bullet" unicode="&#x2022;" horiz-adv-x="549" 
d="M209 332v85c0 14 11 25 25 25h80c14 0 25 -11 25 -25v-85c0 -14 -11 -25 -25 -25h-80c-14 0 -25 11 -25 25z" />
    <glyph glyph-name="paragraph" unicode="&#xb6;" horiz-adv-x="617" 
d="M255 -95v475c0 13 -9 23 -22 23h-22c-56 0 -101 19 -130 58c-25 33 -39 81 -39 145v12c0 63 13 112 38 146c29 41 74 61 131 61h319c14 0 25 -11 25 -25v-13c0 -14 -11 -25 -25 -25h-36c-13 0 -22 -9 -22 -22v-834c0 -14 -11 -25 -25 -25h-19c-14 0 -25 11 -25 25v834
c0 13 -9 22 -22 22h-35c-13 0 -22 -9 -22 -22v-835c0 -14 -11 -25 -25 -25h-19c-14 0 -25 11 -25 25z" />
    <glyph glyph-name="germandbls" unicode="&#xdf;" horiz-adv-x="457" 
d="M229 0h-6c-14 0 -25 11 -25 25v30c0 14 11 25 25 25h6c23 0 44 8 60 25c18 19 24 49 24 90v166c0 41 -6 71 -22 90c-15 17 -35 25 -57 25h-11c-14 0 -25 11 -25 25v29c0 14 11 25 25 25h11c22 0 42 8 57 25c16 19 20 48 20 89c0 16 -4 41 -22 60c-16 17 -37 25 -60 25
s-44 -8 -60 -25c-18 -19 -24 -49 -24 -90v-614c0 -14 -11 -25 -25 -25h-34c-14 0 -25 11 -25 25v621c0 63 16 102 42 132c29 33 72 54 126 54s97 -21 126 -54c23 -26 41 -69 41 -110c0 -46 -4 -93 -39 -128l-8 -8c-6 -6 -8 -11 -8 -16s2 -10 8 -16l8 -8
c35 -35 40 -88 40 -134v-172c0 -63 -17 -102 -43 -132c-29 -33 -71 -54 -125 -54z" />
    <glyph glyph-name="registered" unicode="&#xae;" horiz-adv-x="832" 
d="M83 336v154c0 60 12 113 34 158c56 118 175 184 299 184s241 -65 298 -182c22 -46 35 -99 35 -160v-154c0 -90 -28 -165 -73 -221c-63 -79 -160 -122 -260 -122c-101 0 -198 43 -261 123c-45 56 -72 131 -72 220zM138 490v-154c0 -92 33 -166 86 -217
c50 -47 117 -74 193 -74c75 0 143 27 192 74c53 51 85 125 85 217v154c0 61 -15 114 -40 158c-48 83 -135 132 -239 132s-191 -50 -239 -135c-24 -43 -38 -95 -38 -155zM558 540v-4c0 -49 -11 -83 -44 -116l-8 -8c-6 -6 -8 -11 -8 -16s2 -10 8 -16l8 -8
c35 -35 40 -99 40 -145v-76c0 -14 -11 -25 -25 -25h-24c-14 0 -25 11 -25 25v80c0 54 -5 84 -21 103c-14 17 -33 26 -54 26h-30c-13 0 -21 -10 -21 -23v-186c0 -14 -11 -25 -25 -25h-24c-14 0 -25 11 -25 25v523c0 16 16 30 30 30h93c94 0 155 -55 155 -164zM376 433h31
c19 0 38 7 51 20s22 33 22 61v38c0 55 -33 81 -72 81h-30c-16 0 -24 -7 -24 -22v-156c0 -15 7 -22 22 -22z" />
    <glyph glyph-name="copyright" unicode="&#xa9;" horiz-adv-x="832" 
d="M492 298v39c0 14 11 25 25 25h28c14 0 25 -11 25 -25v-45c0 -59 -15 -95 -39 -123c-27 -30 -66 -49 -116 -49s-90 19 -117 49c-24 28 -39 64 -39 123v242c0 59 15 95 39 123c27 30 67 50 117 50s89 -20 116 -50c24 -28 39 -64 39 -123v-37c0 -14 -11 -25 -25 -25h-28
c-14 0 -25 11 -25 25v31c0 38 -5 66 -22 83c-15 16 -34 23 -55 23c-22 0 -41 -7 -56 -23c-17 -17 -22 -45 -22 -83v-230c0 -38 5 -66 22 -83c15 -16 34 -23 56 -23c21 0 40 7 55 23c17 17 22 45 22 83zM83 336v154c0 110 42 196 105 255c61 57 143 87 228 87
c95 0 187 -39 250 -110c51 -57 83 -136 83 -232v-154c0 -106 -39 -190 -98 -249c-62 -61 -147 -94 -235 -94c-90 0 -177 34 -239 98c-57 58 -94 142 -94 245zM138 490v-154c0 -87 29 -159 77 -209c50 -52 121 -82 202 -82c78 0 148 28 198 79c49 50 79 123 79 212v154
c0 81 -25 150 -68 199c-51 59 -125 91 -211 91c-74 0 -140 -25 -189 -70c-55 -50 -88 -126 -88 -220z" />
    <glyph glyph-name="trademark" unicode="&#x2122;" horiz-adv-x="664" 
d="M572 742v-206c0 -14 -7 -21 -20 -22h-3c-15 0 -23 9 -23 22v222c0 18 -15 30 -33 30s-31 -12 -31 -30v-222c0 -14 -7 -21 -21 -22h-2c-15 0 -22 9 -22 22v222c0 18 -15 30 -33 30s-31 -12 -31 -30v-222c0 -14 -7 -21 -20 -22h-3c-15 0 -23 9 -23 22v267c0 15 8 26 22 26
c5 0 8 -1 11 -2l2 -1c2 -1 6 -3 10 -3c13 0 20 6 35 6s30 -4 38 -8c6 -3 11 -5 15 -5s12 4 15 5c11 4 25 8 41 8c38 0 76 -25 76 -87zM230 786h-35c-11 0 -16 -8 -16 -17v-233c0 -14 -7 -21 -20 -22h-3c-15 0 -23 9 -23 22v233c0 9 -5 17 -16 17h-35c-11 0 -16 5 -16 17v7
c1 9 6 15 16 15h148c10 0 15 -8 16 -16v-6c0 -9 -5 -17 -16 -17z" />
    <glyph glyph-name="acute" unicode="&#xb4;" horiz-adv-x="458" 
d="M299 781l-125 -91c-7 -5 -14 -8 -20 -8c-13 0 -21 10 -21 22c0 6 3 11 12 23l58 78c13 17 21 20 42 20h46c14 0 22 -10 22 -21c0 -7 -3 -15 -14 -23z" />
    <glyph glyph-name="dieresis" unicode="&#xa8;" horiz-adv-x="458" 
d="M66 745v32c0 14 11 25 25 25h32c14 0 25 -11 25 -25v-32c0 -14 -11 -25 -25 -25h-32c-14 0 -25 11 -25 25zM257 745v32c0 14 11 25 25 25h32c14 0 25 -11 25 -25v-32c0 -14 -11 -25 -25 -25h-32c-14 0 -25 11 -25 25z" />
    <glyph glyph-name="AE" unicode="&#xc6;" horiz-adv-x="599" 
d="M307 479v161c0 41 -6 71 -23 90c-15 17 -35 25 -56 25c-23 0 -42 -8 -57 -25c-18 -19 -23 -49 -23 -90v-161c0 -12 10 -22 22 -22h115c12 0 22 10 22 22zM307 25v330c0 12 -9 22 -22 22h-115c-12 0 -22 -10 -22 -22v-330c0 -14 -11 -25 -25 -25h-35c-14 0 -26 11 -26 25
v622c0 63 16 101 40 131c28 33 68 54 119 54c34 0 56 -7 80 -17c3 -1 5 -2 10 -2c8 0 12 3 16 5c7 4 15 7 26 7h176c14 0 26 -11 26 -25v-32c0 -14 -12 -22 -26 -25h-113c-14 0 -23 -10 -23 -23v-239c0 -13 9 -23 23 -23h113c14 0 26 -11 26 -25v-32c0 -14 -12 -25 -26 -25
h-113c-14 0 -23 -10 -23 -23v-248c0 -13 9 -23 23 -23h113c14 0 26 -11 26 -25v-32c0 -14 -12 -25 -26 -25h-196c-14 0 -26 11 -26 25z" />
    <glyph glyph-name="Oslash" unicode="&#xd8;" 
d="M147 639v-268c0 -12 8 -22 20 -22c10 0 17 6 20 14l115 275c7 17 10 33 10 47c0 17 -5 32 -16 44c-16 17 -39 25 -62 25c-24 0 -46 -8 -62 -25c-19 -19 -25 -49 -25 -90zM93 16l-5 -11c-6 -13 -14 -18 -24 -18c-13 0 -22 10 -22 21c0 8 3 14 6 21l24 56c2 5 4 12 4 15
c0 2 0 5 -2 12c-9 22 -12 53 -12 88v446c0 63 16 102 42 132c30 33 75 54 130 54c41 0 75 -10 102 -30l4 -3c4 -3 8 -4 13 -4c9 0 16 4 21 14l6 11c6 13 14 18 23 18c13 0 22 -10 22 -21c0 -8 -3 -14 -6 -21l-23 -56c-2 -5 -4 -12 -4 -15c0 -2 0 -5 2 -12
c8 -22 12 -53 12 -88v-446c0 -63 -16 -102 -43 -132c-29 -33 -74 -54 -129 -54c-41 0 -76 10 -102 30l-4 3c-4 3 -9 4 -14 4c-9 0 -16 -4 -21 -14zM320 186v268c0 12 -8 22 -20 22c-9 0 -16 -6 -19 -14l-116 -275c-7 -17 -10 -33 -10 -47c0 -17 5 -32 17 -44
c16 -17 38 -25 62 -25c23 0 46 8 62 25c18 19 24 49 24 90z" />
    <glyph glyph-name="plusminus" unicode="&#xb1;" horiz-adv-x="549" 
d="M234 149v126c0 13 -9 19 -22 19h-112c-14 0 -25 11 -25 25v32c0 14 11 25 25 25h112c13 0 22 7 22 20v125c0 14 11 25 25 25h34c14 0 25 -11 25 -25v-125c0 -13 9 -20 22 -20h111c14 0 25 -11 25 -25v-32c0 -14 -11 -25 -25 -25h-111c-13 0 -22 -6 -22 -19v-126
c0 -14 -11 -25 -25 -25h-34c-14 0 -25 11 -25 25zM99 82h351c14 0 25 -11 25 -25v-32c0 -14 -11 -25 -25 -25h-351c-14 0 -25 11 -25 25v32c0 14 11 25 25 25z" />
    <glyph glyph-name="yen" unicode="&#xa5;" 
d="M404 800v-143c0 -89 -26 -148 -100 -173c-2 -1 -4 -1 -6 -2c-11 -4 -22 -10 -22 -22s10 -22 22 -22h93c14 0 25 -11 25 -25v-32c0 -14 -11 -25 -25 -25h-92c-15 0 -22 -7 -22 -22v-19c0 -12 7 -22 22 -22h92c14 0 25 -11 25 -25v-32c0 -14 -11 -25 -25 -25h-92
c-15 0 -22 -7 -22 -22v-164c0 -14 -12 -25 -26 -25h-35c-14 0 -25 11 -25 25v164c0 15 -7 22 -23 22h-91c-15 0 -26 11 -26 25v32c0 14 11 25 26 25h91c16 0 23 10 23 22v19c0 15 -7 22 -23 22h-91c-15 0 -26 11 -26 25v32c0 14 11 25 26 25h92c13 0 23 10 23 22
s-11 18 -23 22c-2 1 -4 1 -6 2c-73 25 -100 84 -100 173v143c0 14 12 25 26 25h35c14 0 25 -11 25 -25v-169c0 -26 10 -48 26 -62c15 -14 37 -21 59 -21s43 7 58 21c16 14 26 36 26 62v169c0 14 12 25 26 25h35c14 0 25 -11 25 -25z" />
    <glyph glyph-name="mu" unicode="&#xb5;" horiz-adv-x="457" 
d="M61 -140v750c0 14 11 25 25 25h34c14 0 25 -11 25 -25v-424c0 -41 6 -71 24 -90c16 -17 37 -25 60 -25s44 8 60 25c18 19 24 49 24 90v424c0 14 11 25 25 25h34c14 0 25 -11 25 -25v-432c0 -69 -18 -111 -44 -139c-29 -31 -69 -46 -105 -46c-24 0 -39 4 -50 8l-10 4
c-9 4 -15 6 -23 6c-13 0 -22 -13 -22 -30c0 -15 2 -26 2 -49v-72c0 -14 -11 -25 -25 -25h-34c-14 0 -25 11 -25 25z" />
    <glyph glyph-name="ordfeminine" unicode="&#xaa;" horiz-adv-x="382" 
d="M248 483v77c0 13 -9 23 -22 23h-38c-28 0 -54 -21 -54 -61v-32c0 -37 29 -58 60 -58c24 0 54 14 54 51zM178 365c-69 0 -121 51 -121 135c0 75 34 145 124 145h45c13 0 22 10 22 23v36c0 22 -6 37 -14 47c-11 13 -27 18 -41 18c-20 0 -38 -11 -48 -27
c-6 -9 -9 -18 -9 -36c0 -15 -6 -22 -21 -22h-36c-15 0 -22 7 -22 22c0 26 13 63 40 90c22 22 53 37 96 37c38 0 69 -13 92 -36c25 -25 40 -62 40 -101v-301c0 -19 -15 -30 -31 -30c-10 0 -19 4 -27 12l-3 3c-7 7 -13 7 -19 7c-17 0 -33 -22 -67 -22z" />
    <glyph glyph-name="ordmasculine" unicode="&#xba;" horiz-adv-x="392" 
d="M251 490v218c0 29 -24 61 -55 61c-39 0 -55 -33 -55 -61v-218c0 -43 29 -61 55 -61c34 0 55 27 55 61zM64 506v186c0 74 51 141 132 141s132 -67 132 -141v-186c0 -74 -51 -141 -132 -141s-132 67 -132 141z" />
    <glyph glyph-name="ae" unicode="&#xe6;" horiz-adv-x="687" 
d="M385 449v-53c0 -15 5 -22 20 -22h115c11 0 22 10 22 23v52c0 41 -6 71 -23 90c-15 17 -36 25 -58 25c-21 0 -38 -8 -53 -25c-18 -19 -23 -49 -23 -90zM219 71c59 0 81 46 81 102v102c0 13 -9 23 -22 23h-56c-36 0 -55 -13 -68 -31c-11 -17 -16 -37 -16 -65v-26
c0 -35 6 -57 19 -75c11 -18 34 -30 62 -30zM229 374h49c13 0 22 10 22 23v52c0 41 -6 71 -24 90c-14 17 -35 25 -57 25c-21 0 -43 -8 -57 -25c-15 -16 -22 -43 -23 -75v-22c0 -14 -11 -25 -24 -25h-36c-13 0 -24 11 -24 25v23c0 57 16 94 41 123c28 33 70 54 122 54
c43 0 76 -11 99 -35l8 -8c6 -6 12 -8 16 -8c5 0 10 2 16 8l7 8c24 24 58 35 100 35c54 0 92 -21 120 -54c26 -30 42 -69 42 -132v-132c0 -14 -12 -26 -25 -26h-196c-13 0 -20 -9 -20 -22v-90c0 -41 5 -71 23 -90c15 -17 35 -25 56 -25c22 0 40 8 55 25c17 19 23 49 23 90v8
c0 14 11 25 23 25h37c13 0 24 -11 24 -25v-15c0 -63 -16 -102 -42 -132c-28 -33 -66 -54 -119 -54c-42 0 -75 11 -99 35l-7 8c-6 6 -11 8 -16 8c-4 0 -10 -2 -16 -8l-8 -7c-25 -22 -62 -36 -104 -36c-95 0 -162 72 -162 180v25c0 58 24 114 68 146c25 19 65 30 108 30z" />
    <glyph glyph-name="oslash" unicode="&#xf8;" horiz-adv-x="458" 
d="M291 530c0 6 -2 11 -6 15c-11 11 -32 19 -55 19s-45 -8 -61 -25c-18 -19 -24 -49 -24 -90v-173c0 -12 8 -22 20 -22c9 0 16 6 19 14l104 250c2 6 3 9 3 12zM313 359c0 12 -8 22 -20 22c-9 0 -16 -6 -19 -14l-104 -250c-2 -6 -3 -9 -3 -12c0 -6 2 -11 6 -15
c11 -11 32 -19 55 -19s45 8 61 25c18 19 24 49 24 90v173zM397 450v-250c0 -81 -21 -139 -62 -173c-27 -23 -63 -34 -106 -34c-40 0 -61 8 -70 12l-4 2c-4 2 -7 3 -12 3c-9 0 -16 -4 -21 -14c-6 -13 -11 -19 -20 -19c-13 0 -26 7 -26 19c0 8 4 16 7 23l7 17c3 6 4 12 4 17
c0 4 -1 8 -3 12c-15 28 -30 71 -30 120v250c0 81 21 139 62 173c27 23 63 34 106 34c40 0 61 -8 70 -12l4 -2c4 -2 7 -3 12 -3c9 0 16 4 21 14c6 13 11 19 20 19c13 0 26 -7 26 -19c0 -8 -4 -16 -7 -23l-7 -17c-3 -6 -4 -12 -4 -17c0 -4 1 -8 3 -12c15 -28 30 -71 30 -120z
" />
    <glyph glyph-name="questiondown" unicode="&#xbf;" horiz-adv-x="451" 
d="M264 630v-45c0 -14 -12 -25 -26 -25h-41c-14 0 -25 11 -25 25v45c0 14 11 25 25 25h41c14 0 26 -11 26 -25zM389 65v-50c0 -63 -16 -102 -43 -132c-29 -33 -73 -54 -128 -54s-99 21 -129 54c-26 30 -43 69 -43 132v23c0 89 12 119 74 211l13 20c37 55 41 70 46 144l2 30
c1 13 13 22 26 22h22c13 0 25 -9 26 -22c1 -19 3 -61 3 -76c0 -65 -24 -98 -61 -149l-11 -16c-28 -40 -54 -83 -54 -156v-24c0 -41 6 -71 24 -90c17 -17 38 -25 62 -25c23 0 44 8 61 25c18 19 23 49 23 90v43c0 14 11 25 26 25h34c15 0 27 -11 27 -25z" />
    <glyph glyph-name="exclamdown" unicode="&#xa1;" horiz-adv-x="240" 
d="M77 -18l4 458c0 14 11 25 25 25h27c14 0 25 -11 25 -25l4 -458v-122c0 -14 -11 -25 -25 -25h-35c-14 0 -25 11 -25 25v122zM73 585v45c0 14 11 25 25 25h43c14 0 25 -11 25 -25v-45c0 -14 -11 -25 -25 -25h-43c-14 0 -25 11 -25 25z" />
    <glyph glyph-name="logicalnot" unicode="&#xac;" horiz-adv-x="549" 
d="M475 431v-203c0 -15 -7 -22 -22 -22h-37c-15 0 -22 7 -22 22v121c0 15 -7 22 -22 22h-275c-15 0 -22 7 -22 22v38c0 12 7 22 22 22h356c15 0 22 -7 22 -22z" />
    <glyph glyph-name="florin" unicode="&#x192;" horiz-adv-x="368" 
d="M225 590c0 -13 9 -22 22 -22h30c15 0 22 -10 22 -22v-35c0 -15 -7 -22 -22 -22h-48c-13 0 -20 -11 -22 -24l-70 -499c-14 -103 -78 -131 -168 -131c-15 0 -22 7 -22 22v38c0 12 7 22 22 22h16c47 0 63 23 69 62c50 352 69 473 69 487c0 13 -9 23 -22 23h-30
c-15 0 -22 10 -22 22v35c0 15 7 22 22 22h48c13 0 22 11 22 24l16 109c17 113 78 130 169 130h5c15 0 22 -7 22 -22v-38c0 -12 -7 -22 -22 -22h-21c-51 0 -66 -22 -71 -59c-8 -53 -14 -89 -14 -100z" />
    <glyph glyph-name="guillemotleft" unicode="&#xab;" horiz-adv-x="430" 
d="M48 405c0 8 3 16 11 24l87 91c10 11 16 13 24 13c10 0 20 -8 20 -22c0 -6 -4 -13 -7 -19l-39 -72c-2 -4 -5 -10 -5 -15s3 -11 5 -15l39 -73c3 -5 7 -12 7 -18c0 -14 -10 -22 -20 -22c-8 0 -14 2 -24 13l-87 91c-8 8 -11 16 -11 24zM227 405c0 8 3 16 11 24l87 91
c10 11 16 13 24 13c10 0 20 -8 20 -22c0 -6 -4 -13 -7 -19l-39 -72c-2 -4 -5 -10 -5 -15s3 -11 5 -15l39 -73c3 -5 7 -12 7 -18c0 -14 -10 -22 -20 -22c-8 0 -14 2 -24 13l-87 91c-8 8 -11 16 -11 24z" />
    <glyph glyph-name="guillemotright" unicode="&#xbb;" horiz-adv-x="430" 
d="M203 405c0 -8 -3 -16 -11 -24l-87 -91c-10 -11 -16 -13 -24 -13c-10 0 -20 8 -20 22c0 6 4 13 7 18l39 73c2 4 5 10 5 15s-3 11 -5 15l-39 72c-3 6 -7 13 -7 19c0 14 10 22 20 22c8 0 14 -2 24 -13l87 -91c8 -8 11 -16 11 -24zM382 405c0 -8 -3 -16 -11 -24l-87 -91
c-10 -11 -16 -13 -24 -13c-10 0 -20 8 -20 22c0 6 4 13 7 18l39 73c2 4 5 10 5 15s-3 11 -5 15l-39 72c-3 6 -7 13 -7 19c0 14 10 22 20 22c8 0 14 -2 24 -13l87 -91c8 -8 11 -16 11 -24z" />
    <glyph glyph-name="ellipsis" unicode="&#x2026;" horiz-adv-x="684" 
d="M69 25v45c0 14 11 25 25 25h40c14 0 25 -11 25 -25v-45c0 -14 -11 -25 -25 -25h-40c-14 0 -25 11 -25 25zM297 25v45c0 14 11 25 25 25h40c14 0 25 -11 25 -25v-45c0 -14 -11 -25 -25 -25h-40c-14 0 -25 11 -25 25zM525 25v45c0 14 11 25 25 25h40c14 0 25 -11 25 -25
v-45c0 -14 -11 -25 -25 -25h-40c-14 0 -25 11 -25 25z" />
    <glyph glyph-name="OE" unicode="&#x152;" horiz-adv-x="599" 
d="M529 0h-176c-11 0 -19 3 -26 7c-4 2 -8 5 -16 5c-5 0 -7 -1 -10 -2c-24 -10 -46 -17 -80 -17c-51 0 -91 21 -119 54c-24 30 -40 68 -40 131v469c0 63 16 101 40 131c28 33 68 54 119 54c34 0 56 -7 80 -17c3 -1 5 -2 10 -2c8 0 12 3 16 5c7 4 15 7 26 7h176
c14 0 26 -11 26 -25v-32c0 -14 -12 -22 -26 -25h-113c-14 0 -23 -10 -23 -23v-239c0 -13 9 -23 23 -23h113c14 0 26 -11 26 -25v-32c0 -14 -12 -25 -26 -25h-113c-14 0 -23 -10 -23 -23v-248c0 -13 9 -23 23 -23h113c14 0 26 -11 26 -25v-32c0 -14 -12 -25 -26 -25zM307 185
v455c0 41 -6 71 -23 90c-15 17 -35 25 -56 25c-23 0 -42 -8 -57 -25c-18 -19 -23 -49 -23 -90v-455c0 -41 5 -71 23 -90c15 -17 34 -25 57 -25c21 0 41 8 56 25c17 19 23 49 23 90z" />
    <glyph glyph-name="oe" unicode="&#x153;" horiz-adv-x="687" 
d="M388 449v-53c0 -15 5 -22 20 -22h113c11 0 22 10 22 23v52c0 42 -6 72 -23 91c-15 17 -35 25 -57 25c-21 0 -38 -8 -52 -25c-18 -19 -23 -49 -23 -91zM145 465v-290c0 -35 6 -57 19 -75c11 -18 33 -30 61 -30c58 0 80 46 80 102v277c0 42 -6 72 -24 91
c-14 17 -34 25 -56 25c-21 0 -44 -8 -57 -25c-15 -16 -22 -43 -23 -75zM626 462v-138c0 -14 -12 -26 -25 -26h-193c-13 0 -20 -9 -20 -22v-91c0 -41 5 -71 23 -90c14 -17 34 -25 55 -25c22 0 39 8 54 25c17 19 23 49 23 90v8c0 15 11 26 23 26h36c13 0 24 -11 24 -26v-15
c0 -63 -16 -102 -41 -132c-28 -33 -66 -54 -118 -54c-42 0 -71 12 -96 35l-9 8c-6 6 -11 8 -16 8c-4 0 -9 -2 -15 -8l-9 -8c-25 -22 -61 -35 -102 -35c-94 0 -159 72 -159 180v290c0 57 16 96 40 125c28 33 71 55 122 55c45 0 74 -12 98 -30l9 -7c5 -5 10 -9 16 -9
s11 4 16 9l9 7c23 18 52 30 97 30c50 0 92 -22 119 -55c24 -29 39 -68 39 -125z" />
    <glyph glyph-name="endash" unicode="&#x2013;" horiz-adv-x="549" 
d="M99 376h351c14 0 25 -11 25 -25v-32c0 -14 -11 -25 -25 -25h-351c-14 0 -25 11 -25 25v32c0 14 11 25 25 25z" />
    <glyph glyph-name="emdash" unicode="&#x2014;" horiz-adv-x="1000" 
d="M94 376h812c14 0 25 -11 25 -25v-32c0 -14 -11 -25 -25 -25h-812c-14 0 -25 11 -25 25v32c0 14 11 25 25 25z" />
    <glyph glyph-name="quotedblleft" unicode="&#x201c;" horiz-adv-x="430" 
d="M140 733c0 -8 4 -14 15 -17l4 -1c10 -3 17 -12 17 -24v-33c0 -14 -11 -25 -25 -25h-44c-14 0 -25 11 -25 25v50c0 29 6 55 17 74c5 9 11 17 17 24c16 17 33 26 47 26c12 0 23 -8 23 -24c0 -12 -8 -19 -16 -26c-4 -3 -11 -8 -16 -14c-8 -9 -14 -20 -14 -35zM308 733
c0 -8 4 -14 15 -17l4 -1c10 -3 17 -12 17 -24v-33c0 -14 -11 -25 -25 -25h-44c-14 0 -25 11 -25 25v50c0 29 6 55 17 74c5 9 11 17 17 24c16 17 33 26 47 26c12 0 23 -8 23 -24c0 -12 -8 -19 -16 -26c-4 -3 -11 -8 -16 -14c-8 -9 -14 -20 -14 -35z" />
    <glyph glyph-name="quotedblright" unicode="&#x201d;" horiz-adv-x="430" 
d="M122 725c0 8 -4 14 -15 17l-4 1c-10 3 -17 12 -17 24v33c0 14 11 25 25 25h44c14 0 25 -11 25 -25v-50c0 -29 -6 -55 -17 -74c-4 -7 -8 -13 -12 -18c-17 -21 -37 -32 -52 -32c-12 0 -23 8 -23 24c0 12 8 19 16 26c4 3 10 9 16 15c7 9 14 20 14 34zM290 725
c0 8 -4 14 -15 17l-4 1c-10 3 -17 12 -17 24v33c0 14 11 25 25 25h44c14 0 25 -11 25 -25v-50c0 -29 -6 -55 -17 -74c-4 -7 -8 -13 -12 -18c-17 -21 -37 -32 -52 -32c-12 0 -23 8 -23 24c0 12 8 19 16 26c4 3 10 9 16 15c7 9 14 20 14 34z" />
    <glyph glyph-name="quoteleft" unicode="&#x2018;" horiz-adv-x="222" 
d="M124 733c0 -8 4 -14 15 -17l4 -1c10 -3 17 -12 17 -24v-33c0 -14 -11 -25 -25 -25h-44c-14 0 -25 11 -25 25v50c0 29 6 55 17 74c5 9 11 17 17 24c16 17 33 26 47 26c12 0 23 -8 23 -24c0 -12 -8 -19 -16 -26c-4 -3 -11 -8 -16 -14c-8 -9 -14 -20 -14 -35z" />
    <glyph glyph-name="quoteright" unicode="&#x2019;" horiz-adv-x="222" 
d="M102 725c0 8 -4 14 -15 17l-4 1c-10 3 -17 12 -17 24v33c0 14 11 25 25 25h44c14 0 25 -11 25 -25v-50c0 -29 -6 -55 -17 -74c-4 -7 -8 -13 -12 -18c-17 -21 -37 -32 -52 -32c-12 0 -23 8 -23 24c0 12 8 19 16 26c4 3 10 9 16 15c7 9 14 20 14 34z" />
    <glyph glyph-name="divide" unicode="&#xf7;" horiz-adv-x="549" 
d="M229 516v45c0 14 11 25 25 25h40c14 0 25 -11 25 -25v-45c0 -14 -11 -25 -25 -25h-40c-14 0 -25 11 -25 25zM229 109v45c0 14 11 25 25 25h40c14 0 25 -11 25 -25v-45c0 -14 -11 -25 -25 -25h-40c-14 0 -25 11 -25 25zM99 376h351c14 0 25 -11 25 -25v-32
c0 -14 -11 -25 -25 -25h-351c-14 0 -25 11 -25 25v32c0 14 11 25 25 25z" />
    <glyph glyph-name="fraction" unicode="&#x2044;" horiz-adv-x="200" 
d="M-17 35l187 772c4 17 11 22 24 22c4 0 6 0 9 -1c11 -2 16 -9 16 -20c0 -5 -2 -18 -6 -36l-183 -754c-4 -17 -11 -22 -24 -22c-6 0 -10 1 -14 2c-8 3 -11 10 -11 19c0 5 0 11 2 18z" />
    <glyph glyph-name="guilsinglleft" unicode="&#x2039;" horiz-adv-x="222" 
d="M35 405c0 8 3 16 11 24l87 91c10 11 16 13 24 13c10 0 20 -8 20 -22c0 -6 -4 -13 -7 -19l-39 -72c-2 -4 -5 -10 -5 -15s3 -11 5 -15l39 -73c3 -5 7 -12 7 -18c0 -14 -10 -22 -20 -22c-8 0 -14 2 -24 13l-87 91c-8 8 -11 16 -11 24z" />
    <glyph glyph-name="guilsinglright" unicode="&#x203a;" horiz-adv-x="222" 
d="M187 405c0 -8 -3 -16 -11 -24l-87 -91c-10 -11 -16 -13 -24 -13c-10 0 -20 8 -20 22c0 6 4 13 7 18l39 73c2 4 5 10 5 15s-3 11 -5 15l-39 72c-3 6 -7 13 -7 19c0 14 10 22 20 22c8 0 14 -2 24 -13l87 -91c8 -8 11 -16 11 -24z" />
    <glyph glyph-name="daggerdbl" unicode="&#x2021;" horiz-adv-x="457" 
d="M190 204v292c0 13 -9 19 -22 19h-112c-14 0 -25 11 -25 25v20c0 14 11 25 25 25h112c13 0 22 7 22 20v195c0 14 11 25 25 25h24c14 0 25 -11 25 -25v-195c0 -13 9 -20 22 -20h111c14 0 25 -11 25 -25v-20c0 -14 -11 -25 -25 -25h-111c-13 0 -22 -6 -22 -19v-292
c0 -13 9 -19 22 -19h111c14 0 25 -11 25 -25v-20c0 -14 -11 -25 -25 -25h-111c-13 0 -22 -7 -22 -20v-195c0 -14 -11 -25 -25 -25h-24c-14 0 -25 11 -25 25v195c0 13 -9 20 -22 20h-112c-14 0 -25 11 -25 25v20c0 14 11 25 25 25h112c13 0 22 6 22 19z" />
    <glyph glyph-name="periodcentered" unicode="&#xb7;" horiz-adv-x="222" 
d="M67 396v45c0 14 11 25 25 25h40c14 0 25 -11 25 -25v-45c0 -14 -11 -25 -25 -25h-40c-14 0 -25 11 -25 25z" />
    <glyph glyph-name="quotesinglbase" unicode="&#x201a;" horiz-adv-x="222" 
d="M102 -5c0 8 -4 14 -15 17l-4 1c-10 3 -17 12 -17 24v33c0 14 11 25 25 25h44c14 0 25 -11 25 -25v-50c0 -29 -6 -55 -17 -74c-4 -7 -8 -13 -12 -18c-17 -21 -37 -32 -52 -32c-12 0 -23 8 -23 24c0 12 8 19 16 26c4 3 10 9 16 15c7 9 14 20 14 34z" />
    <glyph glyph-name="quotedblbase" unicode="&#x201e;" horiz-adv-x="430" 
d="M122 -5c0 8 -4 14 -15 17l-4 1c-10 3 -17 12 -17 24v33c0 14 11 25 25 25h44c14 0 25 -11 25 -25v-50c0 -29 -6 -55 -17 -74c-4 -7 -8 -13 -12 -18c-17 -21 -37 -32 -52 -32c-12 0 -23 8 -23 24c0 12 8 19 16 26c4 3 10 9 16 15c7 9 14 20 14 34zM290 -5
c0 8 -4 14 -15 17l-4 1c-10 3 -17 12 -17 24v33c0 14 11 25 25 25h44c14 0 25 -11 25 -25v-50c0 -29 -6 -55 -17 -74c-4 -7 -8 -13 -12 -18c-17 -21 -37 -32 -52 -32c-12 0 -23 8 -23 24c0 12 8 19 16 26c4 3 10 9 16 15c7 9 14 20 14 34z" />
    <glyph glyph-name="perthousand" unicode="&#x2030;" horiz-adv-x="1127" 
d="M235 39l277 764c6 16 13 22 26 22h30c15 0 22 -7 22 -21c0 -5 -2 -11 -4 -18l-277 -764c-6 -16 -13 -22 -26 -22h-30c-15 0 -22 7 -22 21c0 5 2 11 4 18zM360 688v-75c0 -48 -12 -78 -33 -102c-22 -25 -55 -41 -97 -41s-75 16 -98 41c-21 23 -32 54 -32 102v75
c0 48 12 79 32 102c23 25 56 42 98 42s75 -17 97 -42c21 -23 33 -54 33 -102zM179 691v-82c0 -25 3 -43 14 -55c10 -11 23 -15 37 -15s27 4 37 15c11 12 15 30 15 55v82c0 25 -4 44 -15 56c-10 10 -23 15 -37 15s-27 -5 -37 -15c-11 -12 -14 -31 -14 -56zM722 211v-75
c0 -48 -12 -78 -33 -102c-22 -25 -55 -41 -97 -41s-75 16 -98 41c-21 23 -32 54 -32 102v75c0 48 12 79 32 102c23 25 56 42 98 42s75 -17 97 -42c21 -23 33 -54 33 -102zM541 214v-82c0 -25 3 -43 14 -55c10 -11 23 -15 37 -15s27 4 37 15c11 12 15 30 15 55v82
c0 25 -4 44 -15 56c-10 10 -23 15 -37 15s-27 -5 -37 -15c-11 -12 -14 -31 -14 -56zM1026 211v-75c0 -48 -12 -78 -33 -102c-22 -25 -55 -41 -97 -41s-75 16 -98 41c-21 23 -32 54 -32 102v75c0 48 12 79 32 102c23 25 56 42 98 42s75 -17 97 -42c21 -23 33 -54 33 -102z
M845 214v-82c0 -25 3 -43 14 -55c10 -11 23 -15 37 -15s27 4 37 15c11 12 15 30 15 55v82c0 25 -4 44 -15 56c-10 10 -23 15 -37 15s-27 -5 -37 -15c-11 -12 -14 -31 -14 -56z" />
    <glyph glyph-name="dotlessi" unicode="&#x131;" horiz-adv-x="223" 
d="M69 25v585c0 14 11 25 25 25h34c14 0 25 -11 25 -25v-585c0 -14 -11 -25 -25 -25h-34c-14 0 -25 11 -25 25z" />
    <glyph glyph-name="circumflex" unicode="&#x2c6;" horiz-adv-x="458" 
d="M278 695l-46 35c-11 8 -16 10 -22 10s-11 -2 -21 -10l-47 -35c-5 -4 -11 -8 -17 -8c-14 0 -23 10 -23 22c0 6 3 12 13 23l72 88c6 7 13 12 23 12s17 -5 23 -12l72 -88c10 -11 13 -17 13 -23c0 -12 -9 -22 -23 -22c-6 0 -12 4 -17 8z" />
    <glyph glyph-name="tilde" unicode="&#x2dc;" horiz-adv-x="458" 
d="M191 745l-10 9c-10 9 -15 13 -24 13c-10 0 -18 -7 -21 -18l-2 -8c-3 -10 -12 -18 -24 -18s-23 10 -23 25c0 39 41 77 75 77c23 0 41 -6 58 -21l10 -9c10 -9 15 -13 24 -13c10 0 18 7 21 18l2 8c3 10 11 18 23 18s23 -10 23 -24c0 -40 -38 -78 -72 -78c-23 0 -43 6 -60 21
z" />
    <glyph glyph-name="macron" unicode="&#xaf;" horiz-adv-x="458" 
d="M346 769v-15c0 -15 -7 -22 -22 -22h-210c-15 0 -22 7 -22 22v15c0 15 7 22 22 22h210c15 0 22 -7 22 -22z" />
    <glyph glyph-name="breve" unicode="&#x2d8;" horiz-adv-x="458" 
d="M211 688c-49 0 -96 33 -96 92c0 31 5 49 27 49c7 0 13 -3 17 -8s6 -13 6 -22v-5c0 -29 21 -46 46 -46s46 17 46 46v5c0 9 2 17 6 22s10 8 17 8c22 0 27 -18 27 -49c0 -59 -45 -92 -96 -92z" />
    <glyph glyph-name="dotaccent" unicode="&#x2d9;" horiz-adv-x="458" 
d="M159 760v40c0 14 11 25 25 25h40c14 0 25 -11 25 -25v-40c0 -14 -11 -25 -25 -25h-40c-14 0 -25 11 -25 25z" />
    <glyph glyph-name="ring" unicode="&#x2da;" horiz-adv-x="458" 
d="M190 754c0 -16 13 -29 29 -29s29 13 29 29s-13 29 -29 29s-29 -13 -29 -29zM141 754c0 43 35 78 78 78s78 -35 78 -78s-35 -78 -78 -78s-78 35 -78 78z" />
    <glyph glyph-name="cedilla" unicode="&#xb8;" horiz-adv-x="458" 
d="M270 -97c0 -46 -34 -74 -78 -74c-9 0 -19 1 -28 3c-12 3 -21 9 -21 22c0 22 15 23 35 24s31 11 31 25s-11 24 -31 25s-35 2 -35 24c0 12 8 18 19 21c9 3 20 4 30 4c44 0 78 -28 78 -74z" />
    <glyph glyph-name="hungarumlaut" unicode="&#x2dd;" horiz-adv-x="458" 
d="M336 784l-118 -96c-5 -4 -11 -8 -17 -8c-14 0 -23 10 -23 22c0 6 2 12 12 23l67 80c14 16 21 20 42 20h25c13 0 22 -11 22 -21c0 -7 -2 -13 -10 -20zM196 784l-118 -96c-5 -4 -11 -8 -17 -8c-14 0 -23 10 -23 22c0 6 2 12 12 23l67 80c14 16 21 20 42 20h25
c13 0 22 -11 22 -21c0 -7 -2 -13 -10 -20z" />
    <glyph glyph-name="ogonek" unicode="&#x2db;" horiz-adv-x="458" 
d="M139 -97c0 21 7 38 18 50c14 15 36 24 60 24c21 0 49 -3 49 -25c0 -19 -11 -23 -28 -24h-7c-20 -1 -31 -11 -31 -25c0 -8 4 -15 10 -19c5 -4 12 -6 21 -6h6c17 -1 29 -4 29 -24c0 -11 -7 -17 -16 -21c-10 -4 -22 -4 -33 -4c-23 0 -44 8 -58 22c-12 13 -20 30 -20 52z" />
    <glyph glyph-name="caron" unicode="&#x2c7;" horiz-adv-x="458" 
d="M232 786l46 38c5 4 11 8 17 8c14 0 23 -10 23 -22c0 -6 -3 -12 -13 -23l-72 -88c-6 -7 -13 -12 -23 -12s-17 5 -23 12l-72 88c-10 11 -13 17 -13 23c0 12 9 22 23 22c6 0 12 -4 17 -8l47 -38c10 -8 15 -10 21 -10s11 2 22 10z" />
    <glyph glyph-name="Euro" unicode="&#x20ac;" horiz-adv-x="498" 
d="M179 284v-98c0 -41 6 -71 24 -90c17 -17 38 -25 61 -25c24 0 45 8 62 25c18 19 24 49 24 90v54c0 14 11 25 26 25h34c15 0 26 -11 26 -25v-61c0 -63 -16 -102 -43 -132c-30 -33 -73 -54 -129 -54c-55 0 -98 21 -128 54c-27 30 -43 69 -43 132v105c0 15 -7 22 -22 22h-22
c-14 0 -25 11 -25 25v30c0 14 11 25 25 25h22c15 0 22 14 22 26v14c0 15 -7 22 -22 22h-22c-14 0 -25 11 -25 25v30c0 14 11 25 25 25h22c12 0 22 20 22 29v89c0 63 16 102 43 132c30 33 73 54 128 54c56 0 99 -21 129 -54c27 -30 43 -69 43 -132v-53c0 -14 -11 -25 -26 -25
h-34c-15 0 -26 11 -26 25v46c0 41 -6 71 -24 90c-17 17 -38 25 -62 25c-23 0 -44 -8 -61 -25c-18 -19 -24 -49 -24 -90v-79c0 -12 10 -32 22 -32h92c14 0 26 -11 26 -25v-30c0 -14 -12 -25 -26 -25h-92c-15 0 -22 -7 -22 -22v-14c0 -12 7 -26 22 -26h92c14 0 26 -11 26 -25
v-30c0 -14 -12 -25 -26 -25h-92c-15 0 -22 -7 -22 -22z" />
    <glyph glyph-name="Eth" unicode="&#xd0;" 
d="M224 0h-145c-14 0 -26 11 -26 25l1 337c0 13 -9 23 -22 23h-11c-15 0 -26 11 -26 25v12c0 14 11 25 26 25h11c13 0 22 10 22 23l-1 330c0 14 12 25 26 25h146c55 0 99 -21 128 -54c27 -30 43 -69 43 -132v-453c0 -63 -17 -102 -44 -132c-29 -33 -73 -54 -128 -54zM224 81
h1c23 0 45 8 61 25c18 19 24 49 24 90v433c0 41 -5 71 -23 90c-16 17 -38 25 -61 25h-65c-13 0 -22 -10 -22 -23v-251c0 -13 9 -23 22 -23h42c15 0 26 -11 26 -25v-12c0 -14 -11 -25 -26 -25h-42c-13 0 -22 -10 -22 -23v-258c0 -13 9 -23 22 -23h63z" />
    <glyph glyph-name="notequal" unicode="&#x2260;" horiz-adv-x="549" 
d="M484 441v-32c0 -14 -11 -25 -25 -25h-103c-13 0 -21 -5 -25 -17l-13 -46c-3 -8 -4 -13 -4 -17c0 -10 8 -18 19 -18h126c14 0 25 -11 25 -25v-32c0 -14 -11 -25 -25 -25h-158c-13 0 -21 -5 -25 -17l-27 -83c-5 -17 -23 -22 -36 -22h-25c-19 0 -29 7 -29 20c0 5 1 12 4 19
l16 48c2 6 3 11 3 16c0 11 -6 19 -18 19h-75c-14 0 -25 11 -25 25v32c0 14 11 25 25 25h107c13 0 20 5 24 16l14 47c2 6 3 11 3 16c0 11 -6 19 -18 19h-130c-14 0 -25 11 -25 25v32c0 14 11 25 25 25h161c13 0 21 4 24 15l21 81c5 17 20 26 33 26h32c18 0 28 -9 28 -24
c0 -5 -1 -9 -2 -15l-14 -49c-3 -8 -4 -13 -4 -17c0 -10 8 -17 19 -17h72c14 0 25 -11 25 -25z" />
    <glyph glyph-name="infinity" unicode="&#x221e;" horiz-adv-x="578" 
d="M337 335c0 -4 1 -8 4 -13c21 -34 46 -58 76 -58c29 0 59 21 59 71s-30 71 -59 71c-30 0 -55 -24 -76 -58c-3 -5 -4 -9 -4 -13zM104 335c0 -50 29 -71 58 -71s56 24 77 58c3 5 4 9 4 13s-1 8 -4 13c-21 34 -47 58 -77 58c-29 0 -58 -21 -58 -71zM315 238l-8 9
c-6 6 -11 8 -16 8s-10 -2 -16 -8l-8 -8c-29 -32 -64 -53 -110 -53c-68 0 -135 41 -135 149s67 149 135 149c46 0 81 -21 109 -53l8 -8c6 -6 11 -8 16 -8s10 2 16 8l8 8c29 32 63 53 109 53c68 0 135 -41 135 -149s-67 -149 -135 -149c-47 0 -80 20 -108 52z" />
    <glyph glyph-name="lessequal" unicode="&#x2264;" horiz-adv-x="549" 
d="M99 82h352c14 0 25 -11 25 -25v-32c0 -14 -11 -25 -25 -25h-352c-14 0 -25 11 -25 25v32c0 14 11 25 25 25zM163 336c0 -13 10 -18 23 -22l266 -78c19 -6 23 -13 23 -26v-31c0 -15 -8 -22 -22 -22c-5 0 -11 1 -17 3l-315 96c-36 11 -47 25 -47 58v42c0 33 15 49 47 58
l316 87c4 1 13 3 18 3c14 0 21 -7 21 -22v-21c0 -13 -5 -20 -22 -25l-268 -78c-13 -4 -23 -9 -23 -22z" />
    <glyph glyph-name="greaterequal" unicode="&#x2265;" horiz-adv-x="549" 
d="M99 82h352c14 0 25 -11 25 -25v-32c0 -14 -11 -25 -25 -25h-352c-14 0 -25 11 -25 25v32c0 14 11 25 25 25zM387 335c0 13 -10 18 -23 22l-267 78c-19 6 -23 13 -23 26v31c0 15 8 22 22 22c5 0 11 -1 17 -3l316 -96c36 -11 47 -25 47 -58v-42c0 -33 -11 -47 -47 -58
l-316 -97c-4 -1 -13 -3 -18 -3c-14 0 -21 7 -21 22v31c0 13 5 20 22 25l268 78c13 4 23 9 23 22z" />
    <glyph glyph-name="pi" unicode="&#x3c0;" horiz-adv-x="548" 
d="M323 556h-101c-13 0 -22 -11 -22 -24v-509c0 -13 -9 -23 -22 -23h-40c-15 0 -22 8 -22 23v509c0 13 -9 24 -22 24h-44c-15 0 -22 10 -22 22v35c0 15 7 22 22 22h448c15 0 22 -10 22 -22v-35c0 -15 -7 -22 -22 -22h-47c-13 0 -22 -10 -22 -23v-401c0 -19 5 -32 13 -39
c6 -6 18 -12 32 -12h24c15 0 22 -10 22 -22v-37c0 -12 -7 -22 -22 -22h-12c-54 0 -89 11 -112 36c-19 21 -29 50 -29 98v399c0 13 -9 23 -22 23z" />
    <glyph glyph-name="approxequal" unicode="&#x2248;" horiz-adv-x="549" 
d="M96 370c-15 0 -22 7 -22 22v38c0 9 4 16 11 20c27 18 73 32 108 32c63 0 102 -31 162 -31c32 0 62 13 79 22l4 2c4 2 10 5 15 5c15 0 22 -7 22 -22v-38c0 -9 -4 -16 -11 -20c-27 -18 -73 -31 -108 -31c-64 0 -103 31 -163 31c-31 0 -61 -13 -78 -22l-4 -2
c-4 -2 -10 -5 -15 -6zM96 191c-15 0 -22 7 -22 22v38c0 9 4 16 11 20c27 18 73 32 108 32c63 0 102 -31 159 -31c35 0 65 13 82 22l4 2c4 2 10 5 15 5c15 0 22 -7 22 -22v-38c0 -9 -4 -16 -11 -20c-27 -18 -73 -31 -108 -31c-64 0 -103 31 -164 31c-30 0 -60 -13 -77 -22
l-4 -2c-4 -2 -10 -5 -15 -6z" />
    <glyph glyph-name="Delta" unicode="&#x2206;" horiz-adv-x="497" 
d="M414 0h-330c-16 0 -23 7 -23 21c0 5 1 11 2 18l98 755c3 21 15 31 39 31h98c23 0 35 -10 39 -31l97 -755c1 -7 2 -13 2 -18c0 -14 -7 -21 -22 -21zM250 756c-13 0 -19 -8 -21 -23l-71 -611c-1 -9 -3 -18 -3 -22c0 -10 8 -18 19 -18h149c11 0 20 8 20 18c0 4 -2 13 -3 22
l-72 610c-2 15 -5 24 -18 24z" />
    <glyph glyph-name="lozenge" unicode="&#x25ca;" horiz-adv-x="549" 
d="M132 412c0 -4 2 -8 5 -14l118 -248c3 -6 11 -12 19 -12s16 6 19 12l118 248c3 6 5 10 5 14c0 6 -2 10 -5 16l-118 247c-3 6 -11 12 -19 12s-16 -6 -19 -12l-118 -247c-3 -6 -5 -10 -5 -16zM60 413c0 5 2 9 3 11l191 395c3 7 11 13 20 13s17 -6 20 -13l191 -395
c1 -2 3 -6 3 -11s-2 -9 -3 -11l-191 -396c-3 -7 -11 -13 -20 -13s-17 6 -20 13l-191 396c-1 2 -3 6 -3 11z" />
    <glyph glyph-name="eth" unicode="&#xf0;" horiz-adv-x="457" 
d="M145 449v-263c0 -41 6 -71 24 -90c16 -17 37 -25 60 -25s44 8 60 25c18 19 24 49 24 90v263c0 41 -6 71 -24 90c-16 17 -37 25 -60 25s-44 -8 -60 -25c-18 -19 -24 -49 -24 -90zM397 449v-270c0 -63 -16 -102 -42 -132c-29 -33 -72 -54 -126 -54s-97 21 -126 54
c-26 30 -42 69 -42 132v273c0 125 68 187 164 187h13c12 0 22 9 22 22c0 7 -8 17 -18 27c-6 6 -13 11 -20 11c-6 0 -12 -3 -20 -11l-10 -10c-6 -6 -12 -9 -19 -9c-5 0 -11 2 -16 7l-9 10c-3 3 -5 7 -5 11c0 6 4 13 11 19l5 4c4 4 7 9 7 14c0 7 -5 15 -19 20l-23 10
c-11 5 -17 12 -17 20c0 4 1 11 4 16l11 18c5 8 11 13 20 13c4 0 8 -1 22 -7c18 -8 35 -18 56 -30c3 -2 7 -3 12 -3s11 1 16 6l28 25c6 6 12 9 19 9c5 0 11 -2 16 -7l9 -10c3 -3 5 -7 5 -11c0 -7 -5 -13 -11 -19l-18 -16c-5 -5 -8 -11 -8 -17c0 -5 2 -10 8 -15
c67 -59 101 -159 101 -287z" />
    <glyph glyph-name="Lslash" unicode="&#x141;" horiz-adv-x="357" 
d="M130 395v-290c0 -13 9 -23 23 -23h127c15 0 26 -11 26 -25v-32c0 -14 -11 -25 -26 -25h-210c-14 0 -25 11 -25 25v316c0 18 -13 26 -32 16l-5 -3c-20 -11 -41 2 -41 27v4c0 16 6 25 23 34l36 19c15 8 19 20 19 33v329c0 14 11 25 25 25h35c14 0 25 -11 25 -25v-275
c0 -18 13 -26 32 -16l25 14c21 11 41 -2 41 -27v-4c0 -16 -6 -25 -22 -34l-57 -30c-15 -8 -19 -20 -19 -33z" />
    <glyph glyph-name="braceleft" unicode="{" horiz-adv-x="404" 
d="M363 903v-33c0 -12 -7 -19 -22 -20c-40 -4 -59 -14 -74 -25c-17 -13 -29 -33 -29 -104v-146c0 -76 -4 -139 -41 -172l-9 -8c-5 -5 -7 -10 -7 -15s2 -10 7 -15l9 -8c37 -33 41 -96 41 -172v-146c0 -71 12 -91 29 -104c15 -11 34 -21 74 -25c15 -1 22 -8 22 -20v-33
c0 -15 -7 -22 -22 -22h-11c-116 4 -176 72 -176 190v207c0 77 -38 107 -83 107h-6c-14 0 -25 11 -25 25v32c0 14 11 25 25 25h6c45 0 83 30 83 107v207c0 118 60 186 176 190h11c15 0 22 -7 22 -22z" />
    <glyph glyph-name="bar" unicode="|" horiz-adv-x="200" 
d="M140 900v-1040c0 -14 -11 -25 -25 -25h-30c-14 0 -25 11 -25 25v1040c0 14 11 25 25 25h30c14 0 25 -11 25 -25z" />
    <glyph glyph-name="braceright" unicode="}" horiz-adv-x="404" 
d="M40 870v33c0 15 7 22 22 22h11c116 -4 176 -72 176 -190v-207c0 -77 38 -107 83 -107h6c14 0 25 -11 25 -25v-32c0 -14 -11 -25 -25 -25h-6c-45 0 -83 -30 -83 -107v-207c0 -118 -60 -186 -176 -190h-11c-15 0 -22 7 -22 22v33c0 12 7 19 22 20c40 4 59 14 74 25
c17 13 29 33 29 104v146c0 76 4 139 41 172l9 8c5 5 7 10 7 15s-2 10 -7 15l-9 8c-37 33 -41 96 -41 172v146c0 71 -12 91 -29 104c-15 11 -34 21 -74 25c-15 1 -22 8 -22 20z" />
    <glyph glyph-name="Adieresis" unicode="&#xc4;" 
d="M170 427h128c12 0 22 10 22 22v190c0 41 -6 71 -25 90c-16 17 -37 25 -61 25s-45 -8 -61 -25c-19 -19 -25 -49 -25 -90v-190c0 -12 10 -22 22 -22zM298 347h-128c-12 0 -22 -10 -22 -22v-300c0 -14 -11 -25 -25 -25h-35c-14 0 -26 11 -26 25v621c0 63 17 102 43 132
c30 33 74 54 129 54s99 -21 129 -54c26 -30 43 -69 43 -132v-621c0 -14 -12 -25 -26 -25h-35c-14 0 -25 11 -25 25v300c0 12 -10 22 -22 22zM98 932v32c0 14 11 25 25 25h32c14 0 25 -11 25 -25v-32c0 -14 -11 -25 -25 -25h-32c-14 0 -25 11 -25 25zM289 932v32
c0 14 11 25 25 25h32c14 0 25 -11 25 -25v-32c0 -14 -11 -25 -25 -25h-32c-14 0 -25 11 -25 25z" />
    <glyph glyph-name="Aring" unicode="&#xc5;" 
d="M170 427h128c12 0 22 10 22 22v190c0 41 -6 71 -25 90c-16 17 -37 25 -61 25s-45 -8 -61 -25c-19 -19 -25 -49 -25 -90v-190c0 -12 10 -22 22 -22zM298 347h-128c-12 0 -22 -10 -22 -22v-300c0 -14 -11 -25 -25 -25h-35c-14 0 -26 11 -26 25v621c0 63 17 102 43 132
c30 33 74 54 129 54s99 -21 129 -54c26 -30 43 -69 43 -132v-621c0 -14 -12 -25 -26 -25h-35c-14 0 -25 11 -25 25v300c0 12 -10 22 -22 22zM205 944c0 -16 13 -29 29 -29s29 13 29 29s-13 29 -29 29s-29 -13 -29 -29zM156 944c0 43 35 78 78 78s78 -35 78 -78
s-35 -78 -78 -78s-78 35 -78 78z" />
    <glyph glyph-name="Ccedilla" unicode="&#xc7;" horiz-adv-x="462" 
d="M320 186v54c0 14 12 25 26 25h35c14 0 25 -11 25 -25v-61c0 -63 -16 -102 -43 -132c-29 -33 -74 -54 -129 -54s-99 21 -129 54c-26 30 -43 69 -43 132v467c0 63 17 102 43 132c30 33 74 54 129 54s100 -21 129 -54c27 -30 43 -69 43 -132v-53c0 -14 -11 -25 -25 -25h-35
c-14 0 -26 11 -26 25v46c0 41 -6 71 -24 90c-16 17 -39 25 -62 25c-24 0 -45 -8 -61 -25c-19 -19 -25 -49 -25 -90v-453c0 -41 6 -71 25 -90c16 -17 37 -25 61 -25c23 0 46 8 62 25c18 19 24 49 24 90zM296 -97c0 -46 -34 -74 -78 -74c-9 0 -19 1 -28 3c-12 3 -21 9 -21 22
c0 22 15 23 35 24s31 11 31 25s-11 24 -31 25s-35 2 -35 24c0 12 8 18 19 21c9 3 20 4 30 4c44 0 78 -28 78 -74z" />
    <glyph glyph-name="Eacute" unicode="&#xc9;" horiz-adv-x="367" 
d="M298 0h-210c-14 0 -26 11 -26 25v775c0 14 12 25 26 25h210c14 0 25 -11 25 -25v-32c0 -14 -11 -22 -25 -25h-128c-13 0 -22 -10 -22 -23v-239c0 -13 9 -23 22 -23h128c14 0 25 -11 25 -25v-32c0 -14 -11 -25 -25 -25h-128c-13 0 -22 -10 -22 -23v-248
c0 -13 9 -23 22 -23h128c14 0 25 -11 25 -25v-32c0 -14 -11 -25 -25 -25zM272 971l-125 -91c-7 -5 -14 -8 -20 -8c-13 0 -21 10 -21 22c0 6 3 11 12 23l58 78c13 17 21 20 42 20h46c14 0 22 -10 22 -21c0 -7 -3 -15 -14 -23z" />
    <glyph glyph-name="Ntilde" unicode="&#xd1;" 
d="M320 25v614c0 41 -7 71 -25 90c-16 17 -38 25 -61 25c-24 0 -45 -8 -61 -25c-19 -19 -25 -49 -25 -90v-614c0 -14 -11 -25 -25 -25h-35c-14 0 -26 11 -26 25v770c0 14 4 21 11 26c6 5 13 7 21 7c10 0 19 -4 28 -10l4 -3c8 -6 13 -8 22 -8c8 0 21 7 42 14
c16 5 39 11 63 11c37 0 79 -15 108 -46c27 -28 45 -70 45 -139v-622c0 -14 -11 -25 -25 -25h-35c-14 0 -26 11 -26 25zM220 915l-10 9c-10 9 -15 13 -24 13c-10 0 -18 -7 -21 -18l-2 -8c-3 -10 -12 -18 -24 -18s-23 10 -23 25c0 39 41 77 75 77c23 0 41 -6 58 -21l10 -9
c10 -9 15 -13 24 -13c10 0 18 7 21 18l2 8c3 10 11 18 23 18s23 -10 23 -24c0 -40 -38 -78 -72 -78c-23 0 -43 6 -60 21z" />
    <glyph glyph-name="Odieresis" unicode="&#xd6;" 
d="M234 71c24 0 45 8 61 25c19 19 25 49 25 90v453c0 41 -6 71 -25 90c-16 17 -37 25 -61 25s-45 -8 -61 -25c-19 -19 -25 -49 -25 -90v-453c0 -41 6 -71 25 -90c16 -17 37 -25 61 -25zM234 -7c-55 0 -99 21 -129 54c-26 30 -43 69 -43 132v467c0 63 17 102 43 132
c30 33 74 54 129 54s99 -21 129 -54c26 -30 43 -69 43 -132v-467c0 -63 -17 -102 -43 -132c-30 -33 -74 -54 -129 -54zM98 932v32c0 14 11 25 25 25h32c14 0 25 -11 25 -25v-32c0 -14 -11 -25 -25 -25h-32c-14 0 -25 11 -25 25zM289 932v32c0 14 11 25 25 25h32
c14 0 25 -11 25 -25v-32c0 -14 -11 -25 -25 -25h-32c-14 0 -25 11 -25 25z" />
    <glyph glyph-name="Udieresis" unicode="&#xdc;" 
d="M320 186v614c0 14 12 25 26 25h35c14 0 25 -11 25 -25v-621c0 -63 -16 -102 -43 -132c-29 -33 -74 -54 -129 -54s-99 21 -129 54c-26 30 -43 69 -43 132v621c0 14 12 25 26 25h35c14 0 25 -11 25 -25v-614c0 -41 6 -71 25 -90c16 -17 37 -25 61 -25c23 0 46 8 62 25
c18 19 24 49 24 90zM98 932v32c0 14 11 25 25 25h32c14 0 25 -11 25 -25v-32c0 -14 -11 -25 -25 -25h-32c-14 0 -25 11 -25 25zM289 932v32c0 14 11 25 25 25h32c14 0 25 -11 25 -25v-32c0 -14 -11 -25 -25 -25h-32c-14 0 -25 11 -25 25z" />
    <glyph glyph-name="aacute" unicode="&#xe1;" horiz-adv-x="453" 
d="M140 197v-28c0 -28 7 -50 20 -68s33 -30 64 -30c40 0 84 25 84 83v116c0 13 -9 23 -22 23h-64c-32 0 -52 -13 -65 -31c-12 -17 -17 -37 -17 -65zM392 456v-426c0 -14 -4 -21 -10 -26s-13 -7 -21 -7c-10 0 -19 4 -27 10l-4 3c-8 6 -13 8 -22 8c-8 0 -21 -8 -39 -14
c-17 -6 -34 -11 -58 -11c-99 0 -158 85 -158 185v16c0 58 24 113 68 145c25 19 65 30 108 30h57c13 0 22 10 22 23v57c0 41 -6 71 -24 90c-16 17 -37 25 -60 25s-44 -8 -60 -25s-24 -45 -24 -80v-1c0 -14 -11 -25 -25 -25h-34c-14 0 -25 11 -25 25v7c0 57 17 94 42 123
c29 33 72 54 126 54s97 -21 126 -54c26 -30 42 -69 42 -132zM309 781l-125 -91c-7 -5 -14 -8 -20 -8c-13 0 -21 10 -21 22c0 6 3 11 12 23l58 78c13 17 21 20 42 20h46c14 0 22 -10 22 -21c0 -7 -3 -15 -14 -23z" />
    <glyph glyph-name="agrave" unicode="&#xe0;" horiz-adv-x="453" 
d="M140 197v-28c0 -28 7 -50 20 -68s33 -30 64 -30c40 0 84 25 84 83v116c0 13 -9 23 -22 23h-64c-32 0 -52 -13 -65 -31c-12 -17 -17 -37 -17 -65zM392 456v-426c0 -14 -4 -21 -10 -26s-13 -7 -21 -7c-10 0 -19 4 -27 10l-4 3c-8 6 -13 8 -22 8c-8 0 -21 -8 -39 -14
c-17 -6 -34 -11 -58 -11c-99 0 -158 85 -158 185v16c0 58 24 113 68 145c25 19 65 30 108 30h57c13 0 22 10 22 23v57c0 41 -6 71 -24 90c-16 17 -37 25 -60 25s-44 -8 -60 -25s-24 -45 -24 -80v-1c0 -14 -11 -25 -25 -25h-34c-14 0 -25 11 -25 25v7c0 57 17 94 42 123
c29 33 72 54 126 54s97 -21 126 -54c26 -30 42 -69 42 -132zM254 690l-132 94c-8 7 -9 13 -9 20c0 11 8 21 22 21h43c21 0 28 -4 42 -20l63 -79c10 -11 12 -16 12 -22c0 -12 -8 -22 -21 -22c-6 0 -13 2 -20 8z" />
    <glyph glyph-name="acircumflex" unicode="&#xe2;" horiz-adv-x="453" 
d="M140 197v-28c0 -28 7 -50 20 -68s33 -30 64 -30c40 0 84 25 84 83v116c0 13 -9 23 -22 23h-64c-32 0 -52 -13 -65 -31c-12 -17 -17 -37 -17 -65zM392 456v-426c0 -14 -4 -21 -10 -26s-13 -7 -21 -7c-10 0 -19 4 -27 10l-4 3c-8 6 -13 8 -22 8c-8 0 -21 -8 -39 -14
c-17 -6 -34 -11 -58 -11c-99 0 -158 85 -158 185v16c0 58 24 113 68 145c25 19 65 30 108 30h57c13 0 22 10 22 23v57c0 41 -6 71 -24 90c-16 17 -37 25 -60 25s-44 -8 -60 -25s-24 -45 -24 -80v-1c0 -14 -11 -25 -25 -25h-34c-14 0 -25 11 -25 25v7c0 57 17 94 42 123
c29 33 72 54 126 54s97 -21 126 -54c26 -30 42 -69 42 -132zM290 695l-46 35c-11 8 -16 10 -22 10s-11 -2 -21 -10l-47 -35c-5 -4 -11 -8 -17 -8c-14 0 -23 10 -23 22c0 6 3 12 13 23l72 88c6 7 13 12 23 12s17 -5 23 -12l72 -88c10 -11 13 -17 13 -23c0 -12 -9 -22 -23 -22
c-6 0 -12 4 -17 8z" />
    <glyph glyph-name="adieresis" unicode="&#xe4;" horiz-adv-x="453" 
d="M140 197v-28c0 -28 7 -50 20 -68s33 -30 64 -30c40 0 84 25 84 83v116c0 13 -9 23 -22 23h-64c-32 0 -52 -13 -65 -31c-12 -17 -17 -37 -17 -65zM392 456v-426c0 -14 -4 -21 -10 -26s-13 -7 -21 -7c-10 0 -19 4 -27 10l-4 3c-8 6 -13 8 -22 8c-8 0 -21 -8 -39 -14
c-17 -6 -34 -11 -58 -11c-99 0 -158 85 -158 185v16c0 58 24 113 68 145c25 19 65 30 108 30h57c13 0 22 10 22 23v57c0 41 -6 71 -24 90c-16 17 -37 25 -60 25s-44 -8 -60 -25s-24 -45 -24 -80v-1c0 -14 -11 -25 -25 -25h-34c-14 0 -25 11 -25 25v7c0 57 17 94 42 123
c29 33 72 54 126 54s97 -21 126 -54c26 -30 42 -69 42 -132zM86 745v32c0 14 11 25 25 25h32c14 0 25 -11 25 -25v-32c0 -14 -11 -25 -25 -25h-32c-14 0 -25 11 -25 25zM277 745v32c0 14 11 25 25 25h32c14 0 25 -11 25 -25v-32c0 -14 -11 -25 -25 -25h-32
c-14 0 -25 11 -25 25z" />
    <glyph glyph-name="atilde" unicode="&#xe3;" horiz-adv-x="453" 
d="M140 197v-28c0 -28 7 -50 20 -68s33 -30 64 -30c40 0 84 25 84 83v116c0 13 -9 23 -22 23h-64c-32 0 -52 -13 -65 -31c-12 -17 -17 -37 -17 -65zM392 456v-426c0 -14 -4 -21 -10 -26s-13 -7 -21 -7c-10 0 -19 4 -27 10l-4 3c-8 6 -13 8 -22 8c-8 0 -21 -8 -39 -14
c-17 -6 -34 -11 -58 -11c-99 0 -158 85 -158 185v16c0 58 24 113 68 145c25 19 65 30 108 30h57c13 0 22 10 22 23v57c0 41 -6 71 -24 90c-16 17 -37 25 -60 25s-44 -8 -60 -25s-24 -45 -24 -80v-1c0 -14 -11 -25 -25 -25h-34c-14 0 -25 11 -25 25v7c0 57 17 94 42 123
c29 33 72 54 126 54s97 -21 126 -54c26 -30 42 -69 42 -132zM208 745l-10 9c-10 9 -15 13 -24 13c-10 0 -18 -7 -21 -18l-2 -8c-3 -10 -12 -18 -24 -18s-23 10 -23 25c0 39 41 77 75 77c23 0 41 -6 58 -21l10 -9c10 -9 15 -13 24 -13c10 0 18 7 21 18l2 8c3 10 11 18 23 18
s23 -10 23 -24c0 -40 -38 -78 -72 -78c-23 0 -43 6 -60 21z" />
    <glyph glyph-name="aring" unicode="&#xe5;" horiz-adv-x="453" 
d="M140 197v-28c0 -28 7 -50 20 -68s33 -30 64 -30c40 0 84 25 84 83v116c0 13 -9 23 -22 23h-64c-32 0 -52 -13 -65 -31c-12 -17 -17 -37 -17 -65zM392 456v-426c0 -14 -4 -21 -10 -26s-13 -7 -21 -7c-10 0 -19 4 -27 10l-4 3c-8 6 -13 8 -22 8c-8 0 -21 -8 -39 -14
c-17 -6 -34 -11 -58 -11c-99 0 -158 85 -158 185v16c0 58 24 113 68 145c25 19 65 30 108 30h57c13 0 22 10 22 23v57c0 41 -6 71 -24 90c-16 17 -37 25 -60 25s-44 -8 -60 -25s-24 -45 -24 -80v-1c0 -14 -11 -25 -25 -25h-34c-14 0 -25 11 -25 25v7c0 57 17 94 42 123
c29 33 72 54 126 54s97 -21 126 -54c26 -30 42 -69 42 -132zM193 754c0 -16 13 -29 29 -29s29 13 29 29s-13 29 -29 29s-29 -13 -29 -29zM144 754c0 43 35 78 78 78s78 -35 78 -78s-35 -78 -78 -78s-78 35 -78 78z" />
    <glyph glyph-name="ccedilla" unicode="&#xe7;" horiz-adv-x="448" 
d="M229 564c-23 0 -44 -8 -60 -25c-18 -19 -24 -49 -24 -90v-263c0 -41 6 -71 24 -90c16 -17 37 -25 60 -25s44 8 60 25c18 19 24 46 24 87v11c0 14 11 25 25 25h34c14 0 25 -11 25 -25v-15c0 -63 -16 -102 -42 -132c-29 -33 -72 -54 -126 -54s-97 21 -126 54
c-26 30 -42 69 -42 132v277c0 63 16 102 42 132c29 33 72 54 126 54s97 -21 126 -54c25 -29 42 -66 42 -123v-23c0 -14 -11 -25 -25 -25h-34c-14 0 -25 11 -25 25v22c0 33 -9 59 -24 75c-16 17 -37 25 -60 25zM286 -97c0 -46 -34 -74 -78 -74c-9 0 -19 1 -28 3
c-12 3 -21 9 -21 22c0 22 15 23 35 24s31 11 31 25s-11 24 -31 25s-35 2 -35 24c0 12 8 18 19 21c9 3 20 4 30 4c44 0 78 -28 78 -74z" />
    <glyph glyph-name="eacute" unicode="&#xe9;" horiz-adv-x="457" 
d="M145 449v-58c0 -15 7 -22 22 -22h123c13 0 23 10 23 23v57c0 41 -6 71 -24 90c-16 17 -37 25 -60 25s-44 -8 -60 -25c-18 -19 -24 -49 -24 -90zM371 293h-204c-13 0 -22 -9 -22 -22v-85c0 -41 6 -71 24 -90c16 -17 37 -25 60 -25s44 8 60 25c18 19 24 49 24 90v8
c0 14 11 25 25 25h34c14 0 25 -11 25 -25v-15c0 -63 -16 -102 -42 -132c-29 -33 -72 -54 -126 -54s-97 21 -126 54c-26 30 -42 69 -42 132v277c0 63 16 102 42 132c29 33 72 54 126 54s97 -21 126 -54c26 -30 42 -69 42 -132v-137c0 -14 -12 -26 -26 -26zM314 781l-125 -91
c-7 -5 -14 -8 -20 -8c-13 0 -21 10 -21 22c0 6 3 11 12 23l58 78c13 17 21 20 42 20h46c14 0 22 -10 22 -21c0 -7 -3 -15 -14 -23z" />
    <glyph glyph-name="egrave" unicode="&#xe8;" horiz-adv-x="457" 
d="M145 449v-58c0 -15 7 -22 22 -22h123c13 0 23 10 23 23v57c0 41 -6 71 -24 90c-16 17 -37 25 -60 25s-44 -8 -60 -25c-18 -19 -24 -49 -24 -90zM371 293h-204c-13 0 -22 -9 -22 -22v-85c0 -41 6 -71 24 -90c16 -17 37 -25 60 -25s44 8 60 25c18 19 24 49 24 90v8
c0 14 11 25 25 25h34c14 0 25 -11 25 -25v-15c0 -63 -16 -102 -42 -132c-29 -33 -72 -54 -126 -54s-97 21 -126 54c-26 30 -42 69 -42 132v277c0 63 16 102 42 132c29 33 72 54 126 54s97 -21 126 -54c26 -30 42 -69 42 -132v-137c0 -14 -12 -26 -26 -26zM262 690l-132 94
c-8 7 -9 13 -9 20c0 11 8 21 22 21h43c21 0 28 -4 42 -20l63 -79c10 -11 12 -16 12 -22c0 -12 -8 -22 -21 -22c-6 0 -13 2 -20 8z" />
    <glyph glyph-name="ecircumflex" unicode="&#xea;" horiz-adv-x="457" 
d="M145 449v-58c0 -15 7 -22 22 -22h123c13 0 23 10 23 23v57c0 41 -6 71 -24 90c-16 17 -37 25 -60 25s-44 -8 -60 -25c-18 -19 -24 -49 -24 -90zM371 293h-204c-13 0 -22 -9 -22 -22v-85c0 -41 6 -71 24 -90c16 -17 37 -25 60 -25s44 8 60 25c18 19 24 49 24 90v8
c0 14 11 25 25 25h34c14 0 25 -11 25 -25v-15c0 -63 -16 -102 -42 -132c-29 -33 -72 -54 -126 -54s-97 21 -126 54c-26 30 -42 69 -42 132v277c0 63 16 102 42 132c29 33 72 54 126 54s97 -21 126 -54c26 -30 42 -69 42 -132v-137c0 -14 -12 -26 -26 -26zM290 695l-46 35
c-11 8 -16 10 -22 10s-11 -2 -21 -10l-47 -35c-5 -4 -11 -8 -17 -8c-14 0 -23 10 -23 22c0 6 3 12 13 23l72 88c6 7 13 12 23 12s17 -5 23 -12l72 -88c10 -11 13 -17 13 -23c0 -12 -9 -22 -23 -22c-6 0 -12 4 -17 8z" />
    <glyph glyph-name="edieresis" unicode="&#xeb;" horiz-adv-x="457" 
d="M145 449v-58c0 -15 7 -22 22 -22h123c13 0 23 10 23 23v57c0 41 -6 71 -24 90c-16 17 -37 25 -60 25s-44 -8 -60 -25c-18 -19 -24 -49 -24 -90zM371 293h-204c-13 0 -22 -9 -22 -22v-85c0 -41 6 -71 24 -90c16 -17 37 -25 60 -25s44 8 60 25c18 19 24 49 24 90v8
c0 14 11 25 25 25h34c14 0 25 -11 25 -25v-15c0 -63 -16 -102 -42 -132c-29 -33 -72 -54 -126 -54s-97 21 -126 54c-26 30 -42 69 -42 132v277c0 63 16 102 42 132c29 33 72 54 126 54s97 -21 126 -54c26 -30 42 -69 42 -132v-137c0 -14 -12 -26 -26 -26zM86 745v32
c0 14 11 25 25 25h32c14 0 25 -11 25 -25v-32c0 -14 -11 -25 -25 -25h-32c-14 0 -25 11 -25 25zM277 745v32c0 14 11 25 25 25h32c14 0 25 -11 25 -25v-32c0 -14 -11 -25 -25 -25h-32c-14 0 -25 11 -25 25z" />
    <glyph glyph-name="iacute" unicode="&#xed;" horiz-adv-x="223" 
d="M69 25v585c0 14 11 25 25 25h34c14 0 25 -11 25 -25v-585c0 -14 -11 -25 -25 -25h-34c-14 0 -25 11 -25 25zM229 781l-125 -91c-7 -5 -14 -8 -20 -8c-13 0 -21 10 -21 22c0 6 3 11 12 23l58 78c13 17 21 20 42 20h46c14 0 22 -10 22 -21c0 -7 -3 -15 -14 -23z" />
    <glyph glyph-name="igrave" unicode="&#xec;" horiz-adv-x="223" 
d="M69 25v585c0 14 11 25 25 25h34c14 0 25 -11 25 -25v-585c0 -14 -11 -25 -25 -25h-34c-14 0 -25 11 -25 25zM119 690l-132 94c-8 7 -9 13 -9 20c0 11 8 21 22 21h43c21 0 28 -4 42 -20l63 -79c10 -11 12 -16 12 -22c0 -12 -8 -22 -21 -22c-6 0 -13 2 -20 8z" />
    <glyph glyph-name="icircumflex" unicode="&#xee;" horiz-adv-x="223" 
d="M69 25v585c0 14 11 25 25 25h34c14 0 25 -11 25 -25v-585c0 -14 -11 -25 -25 -25h-34c-14 0 -25 11 -25 25zM179 695l-46 35c-11 8 -16 10 -22 10s-11 -2 -21 -10l-47 -35c-5 -4 -11 -8 -17 -8c-14 0 -23 10 -23 22c0 6 3 12 13 23l72 88c6 7 13 12 23 12s17 -5 23 -12
l72 -88c10 -11 13 -17 13 -23c0 -12 -9 -22 -23 -22c-6 0 -12 4 -17 8z" />
    <glyph glyph-name="idieresis" unicode="&#xef;" horiz-adv-x="223" 
d="M-6 745v32c0 14 11 25 25 25h32c14 0 25 -11 25 -25v-32c0 -14 -11 -25 -25 -25h-32c-14 0 -25 11 -25 25zM146 745v32c0 14 11 25 25 25h32c14 0 25 -11 25 -25v-32c0 -14 -11 -25 -25 -25h-32c-14 0 -25 11 -25 25zM69 25v585c0 14 11 25 25 25h34c14 0 25 -11 25 -25
v-585c0 -14 -11 -25 -25 -25h-34c-14 0 -25 11 -25 25z" />
    <glyph glyph-name="ntilde" unicode="&#xf1;" horiz-adv-x="458" 
d="M313 25v424c0 41 -6 71 -24 90c-16 17 -37 25 -60 25s-44 -8 -60 -25c-18 -19 -24 -49 -24 -90v-424c0 -14 -11 -25 -25 -25h-34c-14 0 -25 11 -25 25v580c0 14 4 21 10 26s13 7 21 7c10 0 19 -5 27 -11l4 -3c8 -6 13 -8 22 -8c8 0 21 8 41 15c16 5 38 11 62 11
c36 0 76 -15 105 -46c26 -28 44 -70 44 -139v-432c0 -14 -11 -25 -25 -25h-34c-14 0 -25 11 -25 25zM214 745l-10 9c-10 9 -15 13 -24 13c-10 0 -18 -7 -21 -18l-2 -8c-3 -10 -12 -18 -24 -18s-23 10 -23 25c0 39 41 77 75 77c23 0 41 -6 58 -21l10 -9c10 -9 15 -13 24 -13
c10 0 18 7 21 18l2 8c3 10 11 18 23 18s23 -10 23 -24c0 -40 -38 -78 -72 -78c-23 0 -43 6 -60 21z" />
    <glyph glyph-name="oacute" unicode="&#xf3;" horiz-adv-x="458" 
d="M145 449v-263c0 -41 6 -71 24 -90c16 -17 37 -25 60 -25s44 8 60 25c18 19 24 49 24 90v263c0 41 -6 71 -24 90c-16 17 -37 25 -60 25s-44 -8 -60 -25c-18 -19 -24 -49 -24 -90zM397 456v-277c0 -63 -16 -102 -42 -132c-29 -33 -72 -54 -126 -54s-97 21 -126 54
c-26 30 -42 69 -42 132v277c0 63 16 102 42 132c29 33 72 54 126 54s97 -21 126 -54c26 -30 42 -69 42 -132zM314 781l-125 -91c-7 -5 -14 -8 -20 -8c-13 0 -21 10 -21 22c0 6 3 11 12 23l58 78c13 17 21 20 42 20h46c14 0 22 -10 22 -21c0 -7 -3 -15 -14 -23z" />
    <glyph glyph-name="ograve" unicode="&#xf2;" horiz-adv-x="458" 
d="M145 449v-263c0 -41 6 -71 24 -90c16 -17 37 -25 60 -25s44 8 60 25c18 19 24 49 24 90v263c0 41 -6 71 -24 90c-16 17 -37 25 -60 25s-44 -8 -60 -25c-18 -19 -24 -49 -24 -90zM397 456v-277c0 -63 -16 -102 -42 -132c-29 -33 -72 -54 -126 -54s-97 21 -126 54
c-26 30 -42 69 -42 132v277c0 63 16 102 42 132c29 33 72 54 126 54s97 -21 126 -54c26 -30 42 -69 42 -132zM268 690l-132 94c-8 7 -9 13 -9 20c0 11 8 21 22 21h43c21 0 28 -4 42 -20l63 -79c10 -11 12 -16 12 -22c0 -12 -8 -22 -21 -22c-6 0 -13 2 -20 8z" />
    <glyph glyph-name="ocircumflex" unicode="&#xf4;" horiz-adv-x="458" 
d="M145 449v-263c0 -41 6 -71 24 -90c16 -17 37 -25 60 -25s44 8 60 25c18 19 24 49 24 90v263c0 41 -6 71 -24 90c-16 17 -37 25 -60 25s-44 -8 -60 -25c-18 -19 -24 -49 -24 -90zM397 456v-277c0 -63 -16 -102 -42 -132c-29 -33 -72 -54 -126 -54s-97 21 -126 54
c-26 30 -42 69 -42 132v277c0 63 16 102 42 132c29 33 72 54 126 54s97 -21 126 -54c26 -30 42 -69 42 -132zM296 695l-46 35c-11 8 -16 10 -22 10s-11 -2 -21 -10l-47 -35c-5 -4 -11 -8 -17 -8c-14 0 -23 10 -23 22c0 6 3 12 13 23l72 88c6 7 13 12 23 12s17 -5 23 -12
l72 -88c10 -11 13 -17 13 -23c0 -12 -9 -22 -23 -22c-6 0 -12 4 -17 8z" />
    <glyph glyph-name="odieresis" unicode="&#xf6;" horiz-adv-x="458" 
d="M145 449v-263c0 -41 6 -71 24 -90c16 -17 37 -25 60 -25s44 8 60 25c18 19 24 49 24 90v263c0 41 -6 71 -24 90c-16 17 -37 25 -60 25s-44 -8 -60 -25c-18 -19 -24 -49 -24 -90zM397 456v-277c0 -63 -16 -102 -42 -132c-29 -33 -72 -54 -126 -54s-97 21 -126 54
c-26 30 -42 69 -42 132v277c0 63 16 102 42 132c29 33 72 54 126 54s97 -21 126 -54c26 -30 42 -69 42 -132zM92 745v32c0 14 11 25 25 25h32c14 0 25 -11 25 -25v-32c0 -14 -11 -25 -25 -25h-32c-14 0 -25 11 -25 25zM283 745v32c0 14 11 25 25 25h32c14 0 25 -11 25 -25
v-32c0 -14 -11 -25 -25 -25h-32c-14 0 -25 11 -25 25z" />
    <glyph glyph-name="otilde" unicode="&#xf5;" horiz-adv-x="458" 
d="M145 449v-263c0 -41 6 -71 24 -90c16 -17 37 -25 60 -25s44 8 60 25c18 19 24 49 24 90v263c0 41 -6 71 -24 90c-16 17 -37 25 -60 25s-44 -8 -60 -25c-18 -19 -24 -49 -24 -90zM397 456v-277c0 -63 -16 -102 -42 -132c-29 -33 -72 -54 -126 -54s-97 21 -126 54
c-26 30 -42 69 -42 132v277c0 63 16 102 42 132c29 33 72 54 126 54s97 -21 126 -54c26 -30 42 -69 42 -132zM214 745l-10 9c-10 9 -15 13 -24 13c-10 0 -18 -7 -21 -18l-2 -8c-3 -10 -12 -18 -24 -18s-23 10 -23 25c0 39 41 77 75 77c23 0 41 -6 58 -21l10 -9
c10 -9 15 -13 24 -13c10 0 18 7 21 18l2 8c3 10 11 18 23 18s23 -10 23 -24c0 -40 -38 -78 -72 -78c-23 0 -43 6 -60 21z" />
    <glyph glyph-name="uacute" unicode="&#xfa;" horiz-adv-x="458" 
d="M145 610v-424c0 -41 6 -71 24 -90c16 -17 37 -25 60 -25s44 8 60 25c18 19 24 49 24 90v424c0 14 11 25 25 25h34c14 0 25 -11 25 -25v-582c0 -14 -4 -21 -10 -26s-13 -7 -21 -7c-10 0 -19 5 -27 11l-4 3c-8 6 -13 8 -22 8c-8 0 -21 -7 -41 -14c-16 -5 -38 -10 -62 -10
c-36 0 -76 15 -105 46c-26 28 -44 70 -44 139v432c0 14 11 25 25 25h34c14 0 25 -11 25 -25zM314 781l-125 -91c-7 -5 -14 -8 -20 -8c-13 0 -21 10 -21 22c0 6 3 11 12 23l58 78c13 17 21 20 42 20h46c14 0 22 -10 22 -21c0 -7 -3 -15 -14 -23z" />
    <glyph glyph-name="ugrave" unicode="&#xf9;" horiz-adv-x="458" 
d="M145 610v-424c0 -41 6 -71 24 -90c16 -17 37 -25 60 -25s44 8 60 25c18 19 24 49 24 90v424c0 14 11 25 25 25h34c14 0 25 -11 25 -25v-582c0 -14 -4 -21 -10 -26s-13 -7 -21 -7c-10 0 -19 5 -27 11l-4 3c-8 6 -13 8 -22 8c-8 0 -21 -7 -41 -14c-16 -5 -38 -10 -62 -10
c-36 0 -76 15 -105 46c-26 28 -44 70 -44 139v432c0 14 11 25 25 25h34c14 0 25 -11 25 -25zM268 690l-132 94c-8 7 -9 13 -9 20c0 11 8 21 22 21h43c21 0 28 -4 42 -20l63 -79c10 -11 12 -16 12 -22c0 -12 -8 -22 -21 -22c-6 0 -13 2 -20 8z" />
    <glyph glyph-name="ucircumflex" unicode="&#xfb;" horiz-adv-x="458" 
d="M145 610v-424c0 -41 6 -71 24 -90c16 -17 37 -25 60 -25s44 8 60 25c18 19 24 49 24 90v424c0 14 11 25 25 25h34c14 0 25 -11 25 -25v-582c0 -14 -4 -21 -10 -26s-13 -7 -21 -7c-10 0 -19 5 -27 11l-4 3c-8 6 -13 8 -22 8c-8 0 -21 -7 -41 -14c-16 -5 -38 -10 -62 -10
c-36 0 -76 15 -105 46c-26 28 -44 70 -44 139v432c0 14 11 25 25 25h34c14 0 25 -11 25 -25zM296 695l-46 35c-11 8 -16 10 -22 10s-11 -2 -21 -10l-47 -35c-5 -4 -11 -8 -17 -8c-14 0 -23 10 -23 22c0 6 3 12 13 23l72 88c6 7 13 12 23 12s17 -5 23 -12l72 -88
c10 -11 13 -17 13 -23c0 -12 -9 -22 -23 -22c-6 0 -12 4 -17 8z" />
    <glyph glyph-name="udieresis" unicode="&#xfc;" horiz-adv-x="458" 
d="M145 610v-424c0 -41 6 -71 24 -90c16 -17 37 -25 60 -25s44 8 60 25c18 19 24 49 24 90v424c0 14 11 25 25 25h34c14 0 25 -11 25 -25v-582c0 -14 -4 -21 -10 -26s-13 -7 -21 -7c-10 0 -19 5 -27 11l-4 3c-8 6 -13 8 -22 8c-8 0 -21 -7 -41 -14c-16 -5 -38 -10 -62 -10
c-36 0 -76 15 -105 46c-26 28 -44 70 -44 139v432c0 14 11 25 25 25h34c14 0 25 -11 25 -25zM92 745v32c0 14 11 25 25 25h32c14 0 25 -11 25 -25v-32c0 -14 -11 -25 -25 -25h-32c-14 0 -25 11 -25 25zM283 745v32c0 14 11 25 25 25h32c14 0 25 -11 25 -25v-32
c0 -14 -11 -25 -25 -25h-32c-14 0 -25 11 -25 25z" />
    <glyph glyph-name="circumflex.case" 
d="M283 884l-46 35c-11 8 -16 10 -22 10s-11 -2 -21 -10l-47 -35c-5 -4 -11 -8 -17 -8c-14 0 -23 10 -23 22c0 6 3 12 13 23l72 88c6 7 13 12 23 12s17 -5 23 -12l72 -88c10 -11 13 -17 13 -23c0 -12 -9 -22 -23 -22c-6 0 -12 4 -17 8z" />
    <glyph glyph-name="caron.case" 
d="M237 978l46 35c5 4 11 8 17 8c14 0 23 -10 23 -22c0 -6 -3 -12 -13 -23l-72 -88c-6 -7 -13 -12 -23 -12s-17 5 -23 12l-72 88c-10 11 -13 17 -13 23c0 12 9 22 23 22c6 0 12 -4 17 -8l47 -35c10 -8 15 -10 21 -10s11 2 22 10z" />
    <glyph glyph-name="breve.case" 
d="M216 878c-49 0 -96 33 -96 92c0 31 5 49 27 49c7 0 13 -3 17 -8s6 -13 6 -22v-5c0 -29 21 -46 46 -46s46 17 46 46v5c0 9 2 17 6 22s10 8 17 8c22 0 27 -18 27 -49c0 -59 -45 -92 -96 -92z" />
    <glyph glyph-name="dotaccent.case" 
d="M164 927v40c0 14 11 25 25 25h40c14 0 25 -11 25 -25v-40c0 -14 -11 -25 -25 -25h-40c-14 0 -25 11 -25 25z" />
    <glyph glyph-name="ring.case" 
d="M195 944c0 -16 13 -29 29 -29s29 13 29 29s-13 29 -29 29s-29 -13 -29 -29zM146 944c0 43 35 78 78 78s78 -35 78 -78s-35 -78 -78 -78s-78 35 -78 78z" />
    <glyph glyph-name="tilde.case" 
d="M194 915l-10 9c-10 9 -15 13 -24 13c-10 0 -18 -7 -21 -18l-2 -8c-3 -10 -12 -18 -24 -18s-23 10 -23 25c0 39 41 77 75 77c23 0 41 -6 58 -21l10 -9c10 -9 15 -13 24 -13c10 0 18 7 21 18l2 8c3 10 11 18 23 18s23 -10 23 -24c0 -40 -38 -78 -72 -78c-23 0 -43 6 -60 21
z" />
    <glyph glyph-name="hungarumlaut.case" 
d="M352 974l-118 -96c-5 -4 -11 -8 -17 -8c-14 0 -23 10 -23 22c0 6 2 12 12 23l67 80c14 16 21 20 42 20h25c13 0 22 -11 22 -21c0 -7 -2 -13 -10 -20zM212 974l-118 -96c-5 -4 -11 -8 -17 -8c-14 0 -23 10 -23 22c0 6 2 12 12 23l67 80c14 16 21 20 42 20h25
c13 0 22 -11 22 -21c0 -7 -2 -13 -10 -20z" />
    <glyph glyph-name="caron.salt" 
d="M192 800v3c0 15 7 22 22 22h27c15 0 22 -7 22 -22v-5c0 -47 -26 -106 -45 -129c-8 -10 -21 -23 -33 -23s-23 8 -23 22c0 8 4 16 9 26l4 9c10 23 17 54 17 97z" />
    <glyph glyph-name="grave.case" 
d="M266 880l-125 91c-11 8 -14 16 -14 23c0 11 8 21 22 21h46c21 0 29 -3 42 -20l58 -78c9 -12 12 -17 12 -23c0 -12 -8 -22 -21 -22c-6 0 -13 3 -20 8z" />
    <glyph glyph-name="acute.case" 
d="M302 971l-125 -91c-7 -5 -14 -8 -20 -8c-13 0 -21 10 -21 22c0 6 3 11 12 23l58 78c13 17 21 20 42 20h46c14 0 22 -10 22 -21c0 -7 -3 -15 -14 -23z" />
    <glyph glyph-name="dieresis.case" 
d="M71 932v32c0 14 11 25 25 25h32c14 0 25 -11 25 -25v-32c0 -14 -11 -25 -25 -25h-32c-14 0 -25 11 -25 25zM262 932v32c0 14 11 25 25 25h32c14 0 25 -11 25 -25v-32c0 -14 -11 -25 -25 -25h-32c-14 0 -25 11 -25 25z" />
    <glyph glyph-name="uni02C9" unicode="&#x2c9;" 
d="M316 950v-9c0 -15 -7 -22 -22 -22h-180c-15 0 -22 7 -22 22v9c0 15 7 22 22 22h180c15 0 22 -7 22 -22z" />
    <glyph glyph-name="macron.case" 
d="M316 950v-9c0 -15 -7 -22 -22 -22h-180c-15 0 -22 7 -22 22v9c0 15 7 22 22 22h180c15 0 22 -7 22 -22z" />
    <glyph glyph-name="commaaccent.salt" horiz-adv-x="549" 
d="M252 688h-27c-14 0 -24 10 -24 22c0 59 47 108 71 119c7 3 13 4 18 4c12 0 23 -8 23 -24c0 -12 -9 -18 -16 -26c-16 -19 -21 -43 -21 -72v-1c0 -12 -10 -22 -24 -22z" />
    <glyph glyph-name="Amacron" unicode="&#x100;" 
d="M170 427h128c12 0 22 10 22 22v190c0 41 -6 71 -25 90c-16 17 -37 25 -61 25s-45 -8 -61 -25c-19 -19 -25 -49 -25 -90v-190c0 -12 10 -22 22 -22zM298 347h-128c-12 0 -22 -10 -22 -22v-300c0 -14 -11 -25 -25 -25h-35c-14 0 -26 11 -26 25v621c0 63 17 102 43 132
c30 33 74 54 129 54s99 -21 129 -54c26 -30 43 -69 43 -132v-621c0 -14 -12 -25 -26 -25h-35c-14 0 -25 11 -25 25v300c0 12 -10 22 -22 22zM346 950v-9c0 -15 -7 -22 -22 -22h-180c-15 0 -22 7 -22 22v9c0 15 7 22 22 22h180c15 0 22 -7 22 -22z" />
    <glyph glyph-name="amacron" unicode="&#x101;" horiz-adv-x="451" 
d="M140 197v-28c0 -28 7 -50 20 -68s33 -30 64 -30c40 0 84 25 84 83v116c0 13 -9 23 -22 23h-64c-32 0 -52 -13 -65 -31c-12 -17 -17 -37 -17 -65zM392 456v-426c0 -14 -4 -21 -10 -26s-13 -7 -21 -7c-10 0 -19 4 -27 10l-4 3c-8 6 -13 8 -22 8c-8 0 -21 -8 -39 -14
c-17 -6 -34 -11 -58 -11c-99 0 -158 85 -158 185v16c0 58 24 113 68 145c25 19 65 30 108 30h57c13 0 22 10 22 23v57c0 41 -6 71 -24 90c-16 17 -37 25 -60 25s-44 -8 -60 -25s-24 -45 -24 -80v-1c0 -14 -11 -25 -25 -25h-34c-14 0 -25 11 -25 25v7c0 57 17 94 42 123
c29 33 72 54 126 54s97 -21 126 -54c26 -30 42 -69 42 -132zM349 769v-15c0 -15 -7 -22 -22 -22h-210c-15 0 -22 7 -22 22v15c0 15 7 22 22 22h210c15 0 22 -7 22 -22z" />
    <glyph glyph-name="Abreve" unicode="&#x102;" 
d="M170 427h128c12 0 22 10 22 22v190c0 41 -6 71 -25 90c-16 17 -37 25 -61 25s-45 -8 -61 -25c-19 -19 -25 -49 -25 -90v-190c0 -12 10 -22 22 -22zM298 347h-128c-12 0 -22 -10 -22 -22v-300c0 -14 -11 -25 -25 -25h-35c-14 0 -26 11 -26 25v621c0 63 17 102 43 132
c30 33 74 54 129 54s99 -21 129 -54c26 -30 43 -69 43 -132v-621c0 -14 -12 -25 -26 -25h-35c-14 0 -25 11 -25 25v300c0 12 -10 22 -22 22zM234 878c-49 0 -96 33 -96 92c0 31 5 49 27 49c7 0 13 -3 17 -8s6 -13 6 -22v-5c0 -29 21 -46 46 -46s46 17 46 46v5c0 9 2 17 6 22
s10 8 17 8c22 0 27 -18 27 -49c0 -59 -45 -92 -96 -92z" />
    <glyph glyph-name="abreve" unicode="&#x103;" horiz-adv-x="453" 
d="M140 197v-28c0 -28 7 -50 20 -68s33 -30 64 -30c40 0 84 25 84 83v116c0 13 -9 23 -22 23h-64c-32 0 -52 -13 -65 -31c-12 -17 -17 -37 -17 -65zM392 456v-426c0 -14 -4 -21 -10 -26s-13 -7 -21 -7c-10 0 -19 4 -27 10l-4 3c-8 6 -13 8 -22 8c-8 0 -21 -8 -39 -14
c-17 -6 -34 -11 -58 -11c-99 0 -158 85 -158 185v16c0 58 24 113 68 145c25 19 65 30 108 30h57c13 0 22 10 22 23v57c0 41 -6 71 -24 90c-16 17 -37 25 -60 25s-44 -8 -60 -25s-24 -45 -24 -80v-1c0 -14 -11 -25 -25 -25h-34c-14 0 -25 11 -25 25v7c0 57 17 94 42 123
c29 33 72 54 126 54s97 -21 126 -54c26 -30 42 -69 42 -132zM228 688c-49 0 -96 33 -96 92c0 31 5 49 27 49c7 0 13 -3 17 -8s6 -13 6 -22v-5c0 -29 21 -46 46 -46s46 17 46 46v5c0 9 2 17 6 22s10 8 17 8c22 0 27 -18 27 -49c0 -59 -45 -92 -96 -92z" />
    <glyph glyph-name="Aogonek" unicode="&#x104;" 
d="M319 449v190c0 41 -6 71 -24 90c-16 17 -38 25 -61 25c-24 0 -45 -8 -61 -25c-19 -19 -25 -49 -25 -90v-190c0 -12 10 -22 22 -22h127c12 0 22 10 22 22zM319 4v321c0 12 -9 22 -22 22h-127c-12 0 -22 -10 -22 -22v-300c0 -14 -11 -25 -25 -25h-35c-14 0 -26 11 -26 25
v621c0 63 17 102 43 132c30 33 74 54 129 54s99 -21 128 -54c27 -30 43 -69 43 -132v-624c0 -23 -6 -33 -25 -51l-32 -30c-14 -14 -17 -20 -17 -33s12 -21 22 -21c11 0 18 12 31 12c14 0 23 -13 23 -23c0 -27 -36 -47 -73 -47c-49 0 -78 29 -78 67c0 27 24 51 37 63l9 9
c8 8 17 17 17 36z" />
    <glyph glyph-name="aogonek" unicode="&#x105;" horiz-adv-x="453" 
d="M308 275c0 13 -9 23 -22 23h-64c-32 0 -52 -13 -65 -31c-12 -17 -17 -37 -17 -65v-33c0 -28 7 -50 20 -68s33 -30 64 -30c19 0 39 5 55 18c17 13 29 35 29 65v121zM53 178v21c0 58 24 113 68 145c25 19 65 30 108 30h57c13 0 22 10 22 23v52c0 41 -6 71 -24 90
c-16 17 -37 25 -60 25s-44 -8 -60 -25c-15 -16 -23 -42 -24 -73v-24c0 -14 -11 -25 -25 -25h-34c-14 0 -25 11 -25 25v23c0 57 17 94 42 123c29 33 72 54 126 54s97 -21 126 -54c26 -30 42 -69 42 -132v-439c0 -23 -3 -39 -20 -56l-35 -30c-14 -12 -18 -16 -18 -29
s12 -21 22 -21c11 0 18 12 30 12c14 0 21 -12 21 -22c0 -15 -22 -42 -75 -42c-42 0 -71 23 -71 61c0 27 22 46 36 58l28 23c16 13 18 17 18 25c0 12 -10 22 -21 22c-10 0 -21 -8 -41 -15c-15 -5 -30 -10 -55 -10c-99 0 -158 85 -158 185z" />
    <glyph glyph-name="Cacute" unicode="&#x106;" horiz-adv-x="462" 
d="M320 186v54c0 14 12 25 26 25h35c14 0 25 -11 25 -25v-61c0 -63 -16 -102 -43 -132c-29 -33 -74 -54 -129 -54s-99 21 -129 54c-26 30 -43 69 -43 132v467c0 63 17 102 43 132c30 33 74 54 129 54s100 -21 129 -54c27 -30 43 -69 43 -132v-53c0 -14 -11 -25 -25 -25h-35
c-14 0 -26 11 -26 25v46c0 41 -6 71 -24 90c-16 17 -39 25 -62 25c-24 0 -45 -8 -61 -25c-19 -19 -25 -49 -25 -90v-453c0 -41 6 -71 25 -90c16 -17 37 -25 61 -25c23 0 46 8 62 25c18 19 24 49 24 90zM323 971l-125 -91c-7 -5 -14 -8 -20 -8c-13 0 -21 10 -21 22
c0 6 3 11 12 23l58 78c13 17 21 20 42 20h46c14 0 22 -10 22 -21c0 -7 -3 -15 -14 -23z" />
    <glyph glyph-name="cacute" unicode="&#x107;" horiz-adv-x="448" 
d="M229 564c-23 0 -44 -8 -60 -25c-18 -19 -24 -49 -24 -90v-263c0 -41 6 -71 24 -90c16 -17 37 -25 60 -25s44 8 60 25c18 19 24 46 24 87v11c0 14 11 25 25 25h34c14 0 25 -11 25 -25v-15c0 -63 -16 -102 -42 -132c-29 -33 -72 -54 -126 -54s-97 21 -126 54
c-26 30 -42 69 -42 132v277c0 63 16 102 42 132c29 33 72 54 126 54s97 -21 126 -54c25 -29 42 -66 42 -123v-23c0 -14 -11 -25 -25 -25h-34c-14 0 -25 11 -25 25v22c0 33 -9 59 -24 75c-16 17 -37 25 -60 25zM314 781l-125 -91c-7 -5 -14 -8 -20 -8c-13 0 -21 10 -21 22
c0 6 3 11 12 23l58 78c13 17 21 20 42 20h46c14 0 22 -10 22 -21c0 -7 -3 -15 -14 -23z" />
    <glyph glyph-name="Ccircumflex" unicode="&#x108;" horiz-adv-x="462" 
d="M320 186v54c0 14 12 25 26 25h35c14 0 25 -11 25 -25v-61c0 -63 -16 -102 -43 -132c-29 -33 -74 -54 -129 -54s-99 21 -129 54c-26 30 -43 69 -43 132v467c0 63 17 102 43 132c30 33 74 54 129 54s100 -21 129 -54c27 -30 43 -69 43 -132v-53c0 -14 -11 -25 -25 -25h-35
c-14 0 -26 11 -26 25v46c0 41 -6 71 -24 90c-16 17 -39 25 -62 25c-24 0 -45 -8 -61 -25c-19 -19 -25 -49 -25 -90v-453c0 -41 6 -71 25 -90c16 -17 37 -25 61 -25c23 0 46 8 62 25c18 19 24 49 24 90zM302 884l-46 35c-11 8 -16 10 -22 10s-11 -2 -21 -10l-47 -35
c-5 -4 -11 -8 -17 -8c-14 0 -23 10 -23 22c0 6 3 12 13 23l72 88c6 7 13 12 23 12s17 -5 23 -12l72 -88c10 -11 13 -17 13 -23c0 -12 -9 -22 -23 -22c-6 0 -12 4 -17 8z" />
    <glyph glyph-name="ccircumflex" unicode="&#x109;" horiz-adv-x="448" 
d="M229 564c-23 0 -44 -8 -60 -25c-18 -19 -24 -49 -24 -90v-263c0 -41 6 -71 24 -90c16 -17 37 -25 60 -25s44 8 60 25c18 19 24 46 24 87v11c0 14 11 25 25 25h34c14 0 25 -11 25 -25v-15c0 -63 -16 -102 -42 -132c-29 -33 -72 -54 -126 -54s-97 21 -126 54
c-26 30 -42 69 -42 132v277c0 63 16 102 42 132c29 33 72 54 126 54s97 -21 126 -54c25 -29 42 -66 42 -123v-23c0 -14 -11 -25 -25 -25h-34c-14 0 -25 11 -25 25v22c0 33 -9 59 -24 75c-16 17 -37 25 -60 25zM296 695l-46 35c-11 8 -16 10 -22 10s-11 -2 -21 -10l-47 -35
c-5 -4 -11 -8 -17 -8c-14 0 -23 10 -23 22c0 6 3 12 13 23l72 88c6 7 13 12 23 12s17 -5 23 -12l72 -88c10 -11 13 -17 13 -23c0 -12 -9 -22 -23 -22c-6 0 -12 4 -17 8z" />
    <glyph glyph-name="Cdotaccent" unicode="&#x10a;" horiz-adv-x="462" 
d="M320 186v54c0 14 12 25 26 25h35c14 0 25 -11 25 -25v-61c0 -63 -16 -102 -43 -132c-29 -33 -74 -54 -129 -54s-99 21 -129 54c-26 30 -43 69 -43 132v467c0 63 17 102 43 132c30 33 74 54 129 54s100 -21 129 -54c27 -30 43 -69 43 -132v-53c0 -14 -11 -25 -25 -25h-35
c-14 0 -26 11 -26 25v46c0 41 -6 71 -24 90c-16 17 -39 25 -62 25c-24 0 -45 -8 -61 -25c-19 -19 -25 -49 -25 -90v-453c0 -41 6 -71 25 -90c16 -17 37 -25 61 -25c23 0 46 8 62 25c18 19 24 49 24 90zM189 927v40c0 14 11 25 25 25h40c14 0 25 -11 25 -25v-40
c0 -14 -11 -25 -25 -25h-40c-14 0 -25 11 -25 25z" />
    <glyph glyph-name="cdotaccent" unicode="&#x10b;" horiz-adv-x="448" 
d="M229 564c-23 0 -44 -8 -60 -25c-18 -19 -24 -49 -24 -90v-263c0 -41 6 -71 24 -90c16 -17 37 -25 60 -25s44 8 60 25c18 19 24 46 24 87v11c0 14 11 25 25 25h34c14 0 25 -11 25 -25v-15c0 -63 -16 -102 -42 -132c-29 -33 -72 -54 -126 -54s-97 21 -126 54
c-26 30 -42 69 -42 132v277c0 63 16 102 42 132c29 33 72 54 126 54s97 -21 126 -54c25 -29 42 -66 42 -123v-23c0 -14 -11 -25 -25 -25h-34c-14 0 -25 11 -25 25v22c0 33 -9 59 -24 75c-16 17 -37 25 -60 25zM183 760v40c0 14 11 25 25 25h40c14 0 25 -11 25 -25v-40
c0 -14 -11 -25 -25 -25h-40c-14 0 -25 11 -25 25z" />
    <glyph glyph-name="Ccaron" unicode="&#x10c;" horiz-adv-x="462" 
d="M320 186v54c0 14 12 25 26 25h35c14 0 25 -11 25 -25v-61c0 -63 -16 -102 -43 -132c-29 -33 -74 -54 -129 -54s-99 21 -129 54c-26 30 -43 69 -43 132v467c0 63 17 102 43 132c30 33 74 54 129 54s100 -21 129 -54c27 -30 43 -69 43 -132v-53c0 -14 -11 -25 -25 -25h-35
c-14 0 -26 11 -26 25v46c0 41 -6 71 -24 90c-16 17 -39 25 -62 25c-24 0 -45 -8 -61 -25c-19 -19 -25 -49 -25 -90v-453c0 -41 6 -71 25 -90c16 -17 37 -25 61 -25c23 0 46 8 62 25c18 19 24 49 24 90zM256 978l46 35c5 4 11 8 17 8c14 0 23 -10 23 -22c0 -6 -3 -12 -13 -23
l-72 -88c-6 -7 -13 -12 -23 -12s-17 5 -23 12l-72 88c-10 11 -13 17 -13 23c0 12 9 22 23 22c6 0 12 -4 17 -8l47 -35c10 -8 15 -10 21 -10s11 2 22 10z" />
    <glyph glyph-name="ccaron" unicode="&#x10d;" horiz-adv-x="448" 
d="M229 564c-23 0 -44 -8 -60 -25c-18 -19 -24 -49 -24 -90v-263c0 -41 6 -71 24 -90c16 -17 37 -25 60 -25s44 8 60 25c18 19 24 46 24 87v11c0 14 11 25 25 25h34c14 0 25 -11 25 -25v-15c0 -63 -16 -102 -42 -132c-29 -33 -72 -54 -126 -54s-97 21 -126 54
c-26 30 -42 69 -42 132v277c0 63 16 102 42 132c29 33 72 54 126 54s97 -21 126 -54c25 -29 42 -66 42 -123v-23c0 -14 -11 -25 -25 -25h-34c-14 0 -25 11 -25 25v22c0 33 -9 59 -24 75c-16 17 -37 25 -60 25zM250 786l46 38c5 4 11 8 17 8c14 0 23 -10 23 -22
c0 -6 -3 -12 -13 -23l-72 -88c-6 -7 -13 -12 -23 -12s-17 5 -23 12l-72 88c-10 11 -13 17 -13 23c0 12 9 22 23 22c6 0 12 -4 17 -8l47 -38c10 -8 15 -10 21 -10s11 2 22 10z" />
    <glyph glyph-name="Dcaron" unicode="&#x10e;" 
d="M148 722v-619c0 -15 7 -22 22 -22h65c23 0 45 8 61 25c18 19 24 49 24 90v433c0 41 -5 71 -23 90c-16 17 -38 25 -61 25h-63c-17 0 -25 -7 -25 -22zM234 0h-146c-14 0 -26 11 -26 25v775c0 14 12 25 26 25h147c55 0 99 -21 128 -54c27 -30 43 -69 43 -132v-453
c0 -63 -17 -102 -44 -132c-29 -33 -73 -54 -128 -54zM256 978l46 35c5 4 11 8 17 8c14 0 23 -10 23 -22c0 -6 -3 -12 -13 -23l-72 -88c-6 -7 -13 -12 -23 -12s-17 5 -23 12l-72 88c-10 11 -13 17 -13 23c0 12 9 22 23 22c6 0 12 -4 17 -8l47 -35c10 -8 15 -10 21 -10
s11 2 22 10z" />
    <glyph glyph-name="dcaron" unicode="&#x10f;" horiz-adv-x="596" 
d="M313 186v263c0 41 -6 71 -24 90c-16 17 -37 25 -60 25s-44 -8 -60 -25c-18 -19 -24 -49 -24 -90v-263c0 -41 6 -71 24 -90c16 -17 37 -25 60 -25s44 8 60 25c18 19 24 49 24 90zM272 3c-14 -4 -35 -10 -60 -10c-38 0 -79 17 -110 53c-26 30 -41 70 -41 133v277
c0 63 16 103 42 133c29 34 70 53 115 53c17 0 34 -3 51 -8c9 -3 15 -5 23 -5c13 0 22 10 22 23c0 12 -1 13 -1 28v120c0 14 11 25 25 25h34c14 0 25 -11 25 -25v-772c0 -14 -4 -21 -10 -26s-13 -7 -21 -7c-10 0 -19 5 -27 11l-4 3c-8 6 -13 8 -22 8c-8 0 -21 -7 -41 -14z
M503 800v3c0 15 7 22 22 22h27c15 0 22 -7 22 -22v-5c0 -47 -26 -106 -45 -129c-8 -10 -21 -23 -33 -23s-23 8 -23 22c0 8 4 16 9 26l4 9c10 23 17 54 17 97z" />
    <glyph glyph-name="Dcroat" unicode="&#x110;" 
d="M224 0h-145c-14 0 -26 11 -26 25l1 337c0 13 -9 23 -22 23h-11c-15 0 -26 11 -26 25v12c0 14 11 25 26 25h11c13 0 22 10 22 23l-1 330c0 14 12 25 26 25h146c55 0 99 -21 128 -54c27 -30 43 -69 43 -132v-453c0 -63 -17 -102 -44 -132c-29 -33 -73 -54 -128 -54zM224 81
h1c23 0 45 8 61 25c18 19 24 49 24 90v433c0 41 -5 71 -23 90c-16 17 -38 25 -61 25h-65c-13 0 -22 -10 -22 -23v-251c0 -13 9 -23 22 -23h42c15 0 26 -11 26 -25v-12c0 -14 -11 -25 -26 -25h-42c-13 0 -22 -10 -22 -23v-258c0 -13 9 -23 22 -23h63z" />
    <glyph glyph-name="dcroat" unicode="&#x111;" horiz-adv-x="458" 
d="M313 186v263c0 41 -6 71 -24 90c-16 17 -37 25 -60 25s-44 -8 -60 -25c-18 -19 -24 -49 -24 -90v-263c0 -41 6 -71 24 -90c16 -17 37 -25 60 -25s44 8 60 25c18 19 24 49 24 90zM313 700c0 13 -9 23 -22 23h-77c-15 0 -22 7 -22 22v11c0 12 7 22 22 22h77
c13 0 22 11 22 24c0 4 1 9 3 12c4 7 10 11 19 11h40c10 0 17 -4 20 -11c1 -3 2 -7 2 -12c0 -13 9 -24 22 -24h30c15 0 22 -7 22 -22v-11c0 -12 -7 -22 -22 -22h-30c-13 0 -22 -10 -22 -23v-672c0 -14 -4 -21 -10 -26s-13 -7 -21 -7c-10 0 -19 5 -27 11l-4 3
c-8 6 -13 8 -22 8c-8 0 -21 -7 -41 -14c-14 -4 -35 -10 -60 -10c-38 0 -79 17 -110 53c-26 30 -41 70 -41 133v277c0 63 16 103 42 133c29 34 70 53 115 53c17 0 34 -3 51 -8c9 -3 15 -5 23 -5c13 0 22 10 22 23c0 12 -1 33 -1 48z" />
    <glyph glyph-name="Emacron" unicode="&#x112;" horiz-adv-x="367" 
d="M298 0h-210c-14 0 -26 11 -26 25v775c0 14 12 25 26 25h210c14 0 25 -11 25 -25v-32c0 -14 -11 -22 -25 -25h-128c-13 0 -22 -10 -22 -23v-239c0 -13 9 -23 22 -23h128c14 0 25 -11 25 -25v-32c0 -14 -11 -25 -25 -25h-128c-13 0 -22 -10 -22 -23v-248
c0 -13 9 -23 22 -23h128c14 0 25 -11 25 -25v-32c0 -14 -11 -25 -25 -25zM302 950v-9c0 -15 -7 -22 -22 -22h-180c-15 0 -22 7 -22 22v9c0 15 7 22 22 22h180c15 0 22 -7 22 -22z" />
    <glyph glyph-name="emacron" unicode="&#x113;" horiz-adv-x="457" 
d="M145 449v-58c0 -15 7 -22 22 -22h123c13 0 23 10 23 23v57c0 41 -6 71 -24 90c-16 17 -37 25 -60 25s-44 -8 -60 -25c-18 -19 -24 -49 -24 -90zM371 293h-204c-13 0 -22 -9 -22 -22v-85c0 -41 6 -71 24 -90c16 -17 37 -25 60 -25s44 8 60 25c18 19 24 49 24 90v8
c0 14 11 25 25 25h34c14 0 25 -11 25 -25v-15c0 -63 -16 -102 -42 -132c-29 -33 -72 -54 -126 -54s-97 21 -126 54c-26 30 -42 69 -42 132v277c0 63 16 102 42 132c29 33 72 54 126 54s97 -21 126 -54c26 -30 42 -69 42 -132v-137c0 -14 -12 -26 -26 -26zM355 769v-15
c0 -15 -7 -22 -22 -22h-210c-15 0 -22 7 -22 22v15c0 15 7 22 22 22h210c15 0 22 -7 22 -22z" />
    <glyph glyph-name="Ebreve" unicode="&#x114;" horiz-adv-x="367" 
d="M298 0h-210c-14 0 -26 11 -26 25v775c0 14 12 25 26 25h210c14 0 25 -11 25 -25v-32c0 -14 -11 -22 -25 -25h-128c-13 0 -22 -10 -22 -23v-239c0 -13 9 -23 22 -23h128c14 0 25 -11 25 -25v-32c0 -14 -11 -25 -25 -25h-128c-13 0 -22 -10 -22 -23v-248
c0 -13 9 -23 22 -23h128c14 0 25 -11 25 -25v-32c0 -14 -11 -25 -25 -25zM189 878c-49 0 -96 33 -96 92c0 31 5 49 27 49c7 0 13 -3 17 -8s6 -13 6 -22v-5c0 -29 21 -46 46 -46s46 17 46 46v5c0 9 2 17 6 22s10 8 17 8c22 0 27 -18 27 -49c0 -59 -45 -92 -96 -92z" />
    <glyph glyph-name="ebreve" unicode="&#x115;" horiz-adv-x="457" 
d="M145 449v-58c0 -15 7 -22 22 -22h123c13 0 23 10 23 23v57c0 41 -6 71 -24 90c-16 17 -37 25 -60 25s-44 -8 -60 -25c-18 -19 -24 -49 -24 -90zM371 293h-204c-13 0 -22 -9 -22 -22v-85c0 -41 6 -71 24 -90c16 -17 37 -25 60 -25s44 8 60 25c18 19 24 49 24 90v8
c0 14 11 25 25 25h34c14 0 25 -11 25 -25v-15c0 -63 -16 -102 -42 -132c-29 -33 -72 -54 -126 -54s-97 21 -126 54c-26 30 -42 69 -42 132v277c0 63 16 102 42 132c29 33 72 54 126 54s97 -21 126 -54c26 -30 42 -69 42 -132v-137c0 -14 -12 -26 -26 -26zM228 688
c-49 0 -96 33 -96 92c0 31 5 49 27 49c7 0 13 -3 17 -8s6 -13 6 -22v-5c0 -29 21 -46 46 -46s46 17 46 46v5c0 9 2 17 6 22s10 8 17 8c22 0 27 -18 27 -49c0 -59 -45 -92 -96 -92z" />
    <glyph glyph-name="Edotaccent" unicode="&#x116;" horiz-adv-x="367" 
d="M298 0h-210c-14 0 -26 11 -26 25v775c0 14 12 25 26 25h210c14 0 25 -11 25 -25v-32c0 -14 -11 -22 -25 -25h-128c-13 0 -22 -10 -22 -23v-239c0 -13 9 -23 22 -23h128c14 0 25 -11 25 -25v-32c0 -14 -11 -25 -25 -25h-128c-13 0 -22 -10 -22 -23v-248
c0 -13 9 -23 22 -23h128c14 0 25 -11 25 -25v-32c0 -14 -11 -25 -25 -25zM146 927v40c0 14 11 25 25 25h40c14 0 25 -11 25 -25v-40c0 -14 -11 -25 -25 -25h-40c-14 0 -25 11 -25 25z" />
    <glyph glyph-name="edotaccent" unicode="&#x117;" horiz-adv-x="457" 
d="M145 449v-58c0 -15 7 -22 22 -22h123c13 0 23 10 23 23v57c0 41 -6 71 -24 90c-16 17 -37 25 -60 25s-44 -8 -60 -25c-18 -19 -24 -49 -24 -90zM371 293h-204c-13 0 -22 -9 -22 -22v-85c0 -41 6 -71 24 -90c16 -17 37 -25 60 -25s44 8 60 25c18 19 24 49 24 90v8
c0 14 11 25 25 25h34c14 0 25 -11 25 -25v-15c0 -63 -16 -102 -42 -132c-29 -33 -72 -54 -126 -54s-97 21 -126 54c-26 30 -42 69 -42 132v277c0 63 16 102 42 132c29 33 72 54 126 54s97 -21 126 -54c26 -30 42 -69 42 -132v-137c0 -14 -12 -26 -26 -26zM183 760v40
c0 14 11 25 25 25h40c14 0 25 -11 25 -25v-40c0 -14 -11 -25 -25 -25h-40c-14 0 -25 11 -25 25z" />
    <glyph glyph-name="Eogonek" unicode="&#x118;" horiz-adv-x="367" 
d="M216 0h-128c-14 0 -26 11 -26 25v775c0 14 12 25 26 25h210c14 0 25 -11 25 -25v-32c0 -14 -11 -22 -25 -25h-128c-13 0 -22 -10 -22 -23v-239c0 -13 9 -23 22 -23h128c14 0 25 -11 25 -25v-32c0 -14 -11 -25 -25 -25h-128c-13 0 -22 -10 -22 -23v-248
c0 -13 9 -23 22 -23h128c14 0 25 -11 25 -25v-43c0 -23 -4 -29 -21 -46l-36 -35c-14 -14 -19 -17 -19 -30s12 -21 22 -21c12 0 19 12 31 12c14 0 22 -12 22 -22c0 -22 -29 -42 -72 -42c-31 0 -67 18 -67 56c0 27 22 50 35 62l10 9c8 8 10 13 10 21c0 12 -10 22 -22 22z" />
    <glyph glyph-name="eogonek" unicode="&#x119;" horiz-adv-x="457" 
d="M145 449v-53c0 -15 7 -22 22 -22h123c13 0 23 10 23 23v52c0 41 -6 71 -24 90c-16 17 -37 25 -60 25s-44 -8 -60 -25c-18 -19 -24 -49 -24 -90zM397 194v-12c0 -51 -10 -93 -38 -139c-13 -22 -30 -48 -54 -80l-19 -26c-11 -15 -15 -17 -15 -30s12 -21 22 -21
c11 0 18 12 30 12c14 0 22 -12 22 -22c0 -19 -25 -47 -77 -47c-43 0 -70 29 -70 55c0 33 27 51 38 66l4 5c4 5 7 10 7 16c0 12 -10 22 -22 22c-54 0 -93 21 -122 54c-26 30 -42 69 -42 132v277c0 63 16 102 42 132c29 33 72 54 126 54s97 -21 126 -54c26 -30 42 -69 42 -132
v-132c0 -14 -12 -26 -26 -26h-204c-13 0 -22 -9 -22 -22v-90c0 -41 6 -71 24 -90c16 -17 37 -25 60 -25s44 8 60 25c18 19 24 49 24 90v8c0 14 11 25 25 25h34c14 0 25 -11 25 -25z" />
    <glyph glyph-name="Ecaron" unicode="&#x11a;" horiz-adv-x="367" 
d="M298 0h-210c-14 0 -26 11 -26 25v775c0 14 12 25 26 25h210c14 0 25 -11 25 -25v-32c0 -14 -11 -22 -25 -25h-128c-13 0 -22 -10 -22 -23v-239c0 -13 9 -23 22 -23h128c14 0 25 -11 25 -25v-32c0 -14 -11 -25 -25 -25h-128c-13 0 -22 -10 -22 -23v-248
c0 -13 9 -23 22 -23h128c14 0 25 -11 25 -25v-32c0 -14 -11 -25 -25 -25zM213 978l46 35c5 4 11 8 17 8c14 0 23 -10 23 -22c0 -6 -3 -12 -13 -23l-72 -88c-6 -7 -13 -12 -23 -12s-17 5 -23 12l-72 88c-10 11 -13 17 -13 23c0 12 9 22 23 22c6 0 12 -4 17 -8l47 -35
c10 -8 15 -10 21 -10s11 2 22 10z" />
    <glyph glyph-name="ecaron" unicode="&#x11b;" horiz-adv-x="457" 
d="M145 449v-58c0 -15 7 -22 22 -22h123c13 0 23 10 23 23v57c0 41 -6 71 -24 90c-16 17 -37 25 -60 25s-44 -8 -60 -25c-18 -19 -24 -49 -24 -90zM371 293h-204c-13 0 -22 -9 -22 -22v-85c0 -41 6 -71 24 -90c16 -17 37 -25 60 -25s44 8 60 25c18 19 24 49 24 90v8
c0 14 11 25 25 25h34c14 0 25 -11 25 -25v-15c0 -63 -16 -102 -42 -132c-29 -33 -72 -54 -126 -54s-97 21 -126 54c-26 30 -42 69 -42 132v277c0 63 16 102 42 132c29 33 72 54 126 54s97 -21 126 -54c26 -30 42 -69 42 -132v-137c0 -14 -12 -26 -26 -26zM250 786l46 38
c5 4 11 8 17 8c14 0 23 -10 23 -22c0 -6 -3 -12 -13 -23l-72 -88c-6 -7 -13 -12 -23 -12s-17 5 -23 12l-72 88c-10 11 -13 17 -13 23c0 12 9 22 23 22c6 0 12 -4 17 -8l47 -38c10 -8 15 -10 21 -10s11 2 22 10z" />
    <glyph glyph-name="Gcircumflex" unicode="&#x11c;" horiz-adv-x="457" 
d="M220 -7c-39 0 -81 18 -104 41c-31 33 -54 64 -54 145v467c0 63 17 102 43 132c30 33 74 54 129 54s100 -21 129 -54c27 -30 43 -69 43 -132v-53c0 -14 -11 -25 -25 -25h-35c-14 0 -26 11 -26 25v46c0 41 -6 71 -24 90c-16 17 -39 25 -62 25c-24 0 -45 -8 -61 -25
c-19 -19 -25 -49 -25 -90v-453c0 -41 6 -71 25 -90c16 -17 37 -25 61 -25c23 0 46 8 62 25c18 19 24 49 24 90v138c0 12 -8 22 -22 22h-32c-14 0 -25 11 -25 25v33c0 14 11 25 25 25h115c14 0 25 -11 25 -25v-376c0 -14 -4 -21 -10 -26s-13 -7 -22 -7c-10 0 -19 5 -27 11
l-4 3c-8 6 -13 8 -23 8c-8 0 -21 -7 -39 -13s-36 -11 -61 -11zM302 884l-46 35c-11 8 -16 10 -22 10s-11 -2 -21 -10l-47 -35c-5 -4 -11 -8 -17 -8c-14 0 -23 10 -23 22c0 6 3 12 13 23l72 88c6 7 13 12 23 12s17 -5 23 -12l72 -88c10 -11 13 -17 13 -23
c0 -12 -9 -22 -23 -22c-6 0 -12 4 -17 8z" />
    <glyph glyph-name="gcircumflex" unicode="&#x11d;" horiz-adv-x="457" 
d="M145 449v-203c0 -41 6 -71 24 -90c16 -17 37 -25 60 -25s44 8 60 25c18 19 24 49 24 90v203c0 41 -6 71 -24 90c-16 17 -37 25 -60 25s-44 -8 -60 -25c-18 -19 -24 -49 -24 -90zM397 605v-588c0 -49 -13 -101 -48 -138c-32 -33 -75 -50 -120 -50s-88 17 -120 50
c-27 28 -46 68 -46 106v3c0 14 11 25 25 25h31c16 0 25 -9 28 -26l1 -5c4 -21 8 -38 21 -51c16 -16 37 -24 60 -24s44 8 60 24c18 19 24 46 24 85v31c0 13 -8 22 -21 22c-8 0 -16 -5 -25 -7l-11 -3c-13 -4 -31 -6 -45 -6c-31 0 -72 14 -103 46c-35 37 -47 85 -47 142v215
c0 63 15 104 41 134c31 36 72 52 110 52c28 0 46 -7 60 -11c20 -7 33 -15 41 -15c9 0 14 2 22 8l4 3c8 6 17 11 27 11c8 0 15 -2 21 -7s10 -12 10 -26zM296 695l-46 35c-11 8 -16 10 -22 10s-11 -2 -21 -10l-47 -35c-5 -4 -11 -8 -17 -8c-14 0 -23 10 -23 22c0 6 3 12 13 23
l72 88c6 7 13 12 23 12s17 -5 23 -12l72 -88c10 -11 13 -17 13 -23c0 -12 -9 -22 -23 -22c-6 0 -12 4 -17 8z" />
    <glyph glyph-name="Gbreve" unicode="&#x11e;" horiz-adv-x="457" 
d="M220 -7c-39 0 -81 18 -104 41c-31 33 -54 64 -54 145v467c0 63 17 102 43 132c30 33 74 54 129 54s100 -21 129 -54c27 -30 43 -69 43 -132v-53c0 -14 -11 -25 -25 -25h-35c-14 0 -26 11 -26 25v46c0 41 -6 71 -24 90c-16 17 -39 25 -62 25c-24 0 -45 -8 -61 -25
c-19 -19 -25 -49 -25 -90v-453c0 -41 6 -71 25 -90c16 -17 37 -25 61 -25c23 0 46 8 62 25c18 19 24 49 24 90v138c0 12 -8 22 -22 22h-32c-14 0 -25 11 -25 25v33c0 14 11 25 25 25h115c14 0 25 -11 25 -25v-376c0 -14 -4 -21 -10 -26s-13 -7 -22 -7c-10 0 -19 5 -27 11
l-4 3c-8 6 -13 8 -23 8c-8 0 -21 -7 -39 -13s-36 -11 -61 -11zM234 878c-49 0 -96 33 -96 92c0 31 5 49 27 49c7 0 13 -3 17 -8s6 -13 6 -22v-5c0 -29 21 -46 46 -46s46 17 46 46v5c0 9 2 17 6 22s10 8 17 8c22 0 27 -18 27 -49c0 -59 -45 -92 -96 -92z" />
    <glyph glyph-name="gbreve" unicode="&#x11f;" horiz-adv-x="457" 
d="M145 449v-203c0 -41 6 -71 24 -90c16 -17 37 -25 60 -25s44 8 60 25c18 19 24 49 24 90v203c0 41 -6 71 -24 90c-16 17 -37 25 -60 25s-44 -8 -60 -25c-18 -19 -24 -49 -24 -90zM397 605v-588c0 -49 -13 -101 -48 -138c-32 -33 -75 -50 -120 -50s-88 17 -120 50
c-27 28 -46 68 -46 106v3c0 14 11 25 25 25h31c16 0 25 -9 28 -26l1 -5c4 -21 8 -38 21 -51c16 -16 37 -24 60 -24s44 8 60 24c18 19 24 46 24 85v31c0 13 -8 22 -21 22c-8 0 -16 -5 -25 -7l-11 -3c-13 -4 -31 -6 -45 -6c-31 0 -72 14 -103 46c-35 37 -47 85 -47 142v215
c0 63 15 104 41 134c31 36 72 52 110 52c28 0 46 -7 60 -11c20 -7 33 -15 41 -15c9 0 14 2 22 8l4 3c8 6 17 11 27 11c8 0 15 -2 21 -7s10 -12 10 -26zM228 688c-49 0 -96 33 -96 92c0 31 5 49 27 49c7 0 13 -3 17 -8s6 -13 6 -22v-5c0 -29 21 -46 46 -46s46 17 46 46v5
c0 9 2 17 6 22s10 8 17 8c22 0 27 -18 27 -49c0 -59 -45 -92 -96 -92z" />
    <glyph glyph-name="Gdotaccent" unicode="&#x120;" 
d="M220 -7c-39 0 -81 18 -104 41c-31 33 -54 64 -54 145v467c0 63 17 102 43 132c30 33 74 54 129 54s100 -21 129 -54c27 -30 43 -69 43 -132v-53c0 -14 -11 -25 -25 -25h-35c-14 0 -26 11 -26 25v46c0 41 -6 71 -24 90c-16 17 -39 25 -62 25c-24 0 -45 -8 -61 -25
c-19 -19 -25 -49 -25 -90v-453c0 -41 6 -71 25 -90c16 -17 37 -25 61 -25c23 0 46 8 62 25c18 19 24 49 24 90v138c0 12 -8 22 -22 22h-32c-14 0 -25 11 -25 25v33c0 14 11 25 25 25h115c14 0 25 -11 25 -25v-376c0 -14 -4 -21 -10 -26s-13 -7 -22 -7c-10 0 -19 5 -27 11
l-4 3c-8 6 -13 8 -23 8c-8 0 -21 -7 -39 -13s-36 -11 -61 -11zM189 927v40c0 14 11 25 25 25h40c14 0 25 -11 25 -25v-40c0 -14 -11 -25 -25 -25h-40c-14 0 -25 11 -25 25z" />
    <glyph glyph-name="gdotaccent" unicode="&#x121;" horiz-adv-x="457" 
d="M145 449v-203c0 -41 6 -71 24 -90c16 -17 37 -25 60 -25s44 8 60 25c18 19 24 49 24 90v203c0 41 -6 71 -24 90c-16 17 -37 25 -60 25s-44 -8 -60 -25c-18 -19 -24 -49 -24 -90zM397 605v-588c0 -49 -13 -101 -48 -138c-32 -33 -75 -50 -120 -50s-88 17 -120 50
c-27 28 -46 68 -46 106v3c0 14 11 25 25 25h31c16 0 25 -9 28 -26l1 -5c4 -21 8 -38 21 -51c16 -16 37 -24 60 -24s44 8 60 24c18 19 24 46 24 85v31c0 13 -8 22 -21 22c-8 0 -16 -5 -25 -7l-11 -3c-13 -4 -31 -6 -45 -6c-31 0 -72 14 -103 46c-35 37 -47 85 -47 142v215
c0 63 15 104 41 134c31 36 72 52 110 52c28 0 46 -7 60 -11c20 -7 33 -15 41 -15c9 0 14 2 22 8l4 3c8 6 17 11 27 11c8 0 15 -2 21 -7s10 -12 10 -26zM183 760v40c0 14 11 25 25 25h40c14 0 25 -11 25 -25v-40c0 -14 -11 -25 -25 -25h-40c-14 0 -25 11 -25 25z" />
    <glyph glyph-name="uni0122" unicode="&#x122;" 
d="M220 -7c-39 0 -81 18 -104 41c-31 33 -54 64 -54 145v467c0 63 17 102 43 132c30 33 74 54 129 54s100 -21 129 -54c27 -30 43 -69 43 -132v-53c0 -14 -11 -25 -25 -25h-35c-14 0 -26 11 -26 25v46c0 41 -6 71 -24 90c-16 17 -39 25 -62 25c-24 0 -45 -8 -61 -25
c-19 -19 -25 -49 -25 -90v-453c0 -41 6 -71 25 -90c16 -17 37 -25 61 -25c23 0 46 8 62 25c18 19 24 49 24 90v138c0 12 -8 22 -22 22h-32c-14 0 -25 11 -25 25v33c0 14 11 25 25 25h115c14 0 25 -11 25 -25v-376c0 -14 -4 -21 -10 -26s-13 -7 -22 -7c-10 0 -19 5 -27 11
l-4 3c-8 6 -13 8 -23 8c-8 0 -21 -7 -39 -13s-36 -11 -61 -11zM229 -25h27c14 0 24 -10 24 -22c0 -59 -47 -108 -71 -119c-7 -3 -13 -4 -18 -4c-12 0 -23 8 -23 24c0 12 9 18 16 26c16 19 21 43 21 72v1c0 12 10 22 24 22z" />
    <glyph glyph-name="uni0123" unicode="&#x123;" horiz-adv-x="457" 
d="M145 449v-203c0 -41 6 -71 24 -90c16 -17 37 -25 60 -25s44 8 60 25c18 19 24 49 24 90v203c0 41 -6 71 -24 90c-16 17 -37 25 -60 25s-44 -8 -60 -25c-18 -19 -24 -49 -24 -90zM397 605v-588c0 -49 -13 -101 -48 -138c-32 -33 -75 -50 -120 -50s-88 17 -120 50
c-27 28 -46 68 -46 106v3c0 14 11 25 25 25h31c16 0 25 -9 28 -26l1 -5c4 -21 8 -38 21 -51c16 -16 37 -24 60 -24s44 8 60 24c18 19 24 46 24 85v31c0 13 -8 22 -21 22c-8 0 -16 -5 -25 -7l-11 -3c-13 -4 -31 -6 -45 -6c-31 0 -72 14 -103 46c-35 37 -47 85 -47 142v215
c0 63 15 104 41 134c31 36 72 52 110 52c28 0 46 -7 60 -11c20 -7 33 -15 41 -15c9 0 14 2 22 8l4 3c8 6 17 11 27 11c8 0 15 -2 21 -7s10 -12 10 -26zM222 688h-27c-14 0 -24 10 -24 22c0 59 47 108 71 119c7 3 13 4 18 4c12 0 23 -8 23 -24c0 -12 -9 -18 -16 -26
c-16 -19 -21 -43 -21 -72v-1c0 -12 -10 -22 -24 -22z" />
    <glyph glyph-name="commaaccent" unicode="&#xf6c3;" horiz-adv-x="458" 
d="M219 -25h27c14 0 24 -10 24 -22c0 -59 -47 -108 -71 -119c-7 -3 -13 -4 -18 -4c-12 0 -23 8 -23 24c0 12 9 18 16 26c16 19 21 43 21 72v1c0 12 10 22 24 22z" />
    <glyph glyph-name="Hcircumflex" unicode="&#x124;" 
d="M62 25v775c0 14 12 25 26 25h35c14 0 25 -11 25 -25v-321c0 -15 7 -22 22 -22h127c13 0 23 9 23 22v321c0 14 12 25 26 25h35c14 0 25 -11 25 -25v-775c0 -14 -11 -25 -25 -25h-35c-14 0 -26 11 -26 25v329c0 13 -10 23 -23 23h-127c-13 0 -22 -10 -22 -23v-329
c0 -14 -11 -25 -25 -25h-35c-14 0 -26 11 -26 25zM302 884l-46 35c-11 8 -16 10 -22 10s-11 -2 -21 -10l-47 -35c-5 -4 -11 -8 -17 -8c-14 0 -23 10 -23 22c0 6 3 12 13 23l72 88c6 7 13 12 23 12s17 -5 23 -12l72 -88c10 -11 13 -17 13 -23c0 -12 -9 -22 -23 -22
c-6 0 -12 4 -17 8z" />
    <glyph glyph-name="hcircumflex" unicode="&#x125;" horiz-adv-x="458" 
d="M61 25v775c0 14 11 25 25 25h34c14 0 25 -11 25 -25v-97c0 -23 -2 -34 -2 -49c0 -17 9 -30 22 -30c8 0 14 2 23 6l10 4c11 4 26 8 50 8c36 0 76 -15 105 -46c26 -28 44 -70 44 -139v-432c0 -14 -11 -25 -25 -25h-34c-14 0 -25 11 -25 25v424c0 41 -6 71 -24 90
c-16 17 -37 25 -60 25s-44 -8 -60 -25c-18 -19 -24 -49 -24 -90v-424c0 -14 -11 -25 -25 -25h-34c-14 0 -25 11 -25 25zM296 884l-46 35c-11 8 -16 10 -22 10s-11 -2 -21 -10l-47 -35c-5 -4 -11 -8 -17 -8c-14 0 -23 10 -23 22c0 6 3 12 13 23l72 88c6 7 13 12 23 12
s17 -5 23 -12l72 -88c10 -11 13 -17 13 -23c0 -12 -9 -22 -23 -22c-6 0 -12 4 -17 8z" />
    <glyph glyph-name="Hbar" unicode="&#x126;" horiz-adv-x="536" 
d="M352 479v89c0 13 -9 24 -22 24h-124c-14 0 -23 -11 -23 -24v-89c0 -15 7 -22 23 -22h123c13 0 23 9 23 22zM438 568v-546c0 -15 -7 -22 -22 -22h-41c-15 0 -23 7 -23 22v332c0 13 -10 23 -23 23h-123c-14 0 -23 -10 -23 -23v-332c0 -15 -7 -22 -22 -22h-41
c-15 0 -23 7 -23 22v546c0 13 -9 24 -22 24h-20c-16 0 -23 7 -23 22v36c0 12 7 22 23 22h20c13 0 22 10 22 23v108c0 15 8 22 23 22h41c15 0 22 -7 22 -22v-108c0 -13 9 -23 23 -23h124c13 0 22 10 22 23v108c0 15 8 22 23 22h41c15 0 22 -7 22 -22v-108c0 -13 9 -23 23 -23
h20c15 0 22 -10 22 -22v-36c0 -15 -7 -22 -22 -22h-20c-14 0 -23 -11 -23 -24z" />
    <glyph glyph-name="hbar" unicode="&#x127;" horiz-adv-x="458" 
d="M61 25v674c0 13 -9 23 -22 23h-30c-15 0 -22 10 -22 22v12c0 15 7 22 22 22h30c13 0 22 11 22 24v1c0 15 7 22 22 22h40c15 0 22 -7 22 -22v-1c0 -13 9 -24 22 -24h77c15 0 22 -10 22 -22v-12c0 -15 -7 -22 -22 -22h-77c-13 0 -22 -10 -22 -23v-22c0 -23 -2 -8 -2 -23
c0 -17 9 -30 22 -30c8 0 14 2 23 6l10 4c11 4 26 8 50 8c36 0 76 -15 105 -46c26 -28 44 -70 44 -139v-432c0 -14 -11 -25 -25 -25h-34c-14 0 -25 11 -25 25v424c0 41 -6 71 -24 90c-16 17 -37 25 -60 25s-44 -8 -60 -25c-18 -19 -24 -49 -24 -90v-424
c0 -14 -11 -25 -25 -25h-34c-14 0 -25 11 -25 25z" />
    <glyph glyph-name="Itilde" unicode="&#x128;" horiz-adv-x="228" 
d="M100 915l-10 9c-10 9 -15 13 -24 13c-10 0 -18 -7 -21 -18l-2 -8c-3 -10 -12 -18 -24 -18s-23 10 -23 25c0 39 41 77 75 77c23 0 41 -6 58 -21l10 -9c10 -9 15 -13 24 -13c10 0 18 7 21 18l2 8c3 10 11 18 23 18s23 -10 23 -24c0 -40 -38 -78 -72 -78c-23 0 -43 6 -60 21
zM157 800v-775c0 -14 -11 -25 -25 -25h-35c-14 0 -26 11 -26 25v775c0 14 12 25 26 25h35c14 0 25 -11 25 -25z" />
    <glyph glyph-name="itilde" unicode="&#x129;" horiz-adv-x="223" 
d="M69 25v585c0 14 11 25 25 25h34c14 0 25 -11 25 -25v-585c0 -14 -11 -25 -25 -25h-34c-14 0 -25 11 -25 25zM97 745l-10 9c-10 9 -15 13 -24 13c-10 0 -18 -7 -21 -18l-2 -8c-3 -10 -12 -18 -24 -18s-23 10 -23 25c0 39 41 77 75 77c23 0 41 -6 58 -21l10 -9
c10 -9 15 -13 24 -13c10 0 18 7 21 18l2 8c3 10 11 18 23 18s23 -10 23 -24c0 -40 -38 -78 -72 -78c-23 0 -43 6 -60 21z" />
    <glyph glyph-name="Imacron" unicode="&#x12a;" horiz-adv-x="228" 
d="M226 950v-9c0 -15 -7 -22 -22 -22h-180c-15 0 -22 7 -22 22v9c0 15 7 22 22 22h180c15 0 22 -7 22 -22zM157 800v-775c0 -14 -11 -25 -25 -25h-35c-14 0 -26 11 -26 25v775c0 14 12 25 26 25h35c14 0 25 -11 25 -25z" />
    <glyph glyph-name="imacron" unicode="&#x12b;" horiz-adv-x="223" 
d="M69 25v585c0 14 11 25 25 25h34c14 0 25 -11 25 -25v-585c0 -14 -11 -25 -25 -25h-34c-14 0 -25 11 -25 25zM238 769v-15c0 -15 -7 -22 -22 -22h-210c-15 0 -22 7 -22 22v15c0 15 7 22 22 22h210c15 0 22 -7 22 -22z" />
    <glyph glyph-name="Iogonek" unicode="&#x12e;" horiz-adv-x="228" 
d="M71 2v798c0 14 12 25 26 25h35c14 0 25 -11 25 -25v-777c0 -29 -8 -40 -25 -61l-17 -19c-12 -15 -13 -19 -13 -32s14 -23 24 -23c12 0 19 12 31 12c14 0 22 -12 22 -22c0 -19 -26 -49 -71 -49c-41 0 -78 22 -78 64c0 17 4 29 26 59l6 8c4 5 6 13 7 21c1 7 2 15 2 21z" />
    <glyph glyph-name="iogonek" unicode="&#x12f;" horiz-adv-x="222" 
d="M69 765v35c0 14 11 25 25 25h34c14 0 25 -11 25 -25v-35c0 -14 -11 -25 -25 -25h-34c-14 0 -25 11 -25 25zM69 31v579c0 14 11 25 25 25h34c14 0 25 -11 25 -25v-587c0 -29 -8 -40 -25 -61l-16 -19c-12 -15 -13 -19 -13 -32s14 -23 24 -23c11 0 18 12 30 12
c14 0 22 -12 22 -22c0 -19 -26 -49 -70 -49c-40 0 -77 22 -77 64c0 17 4 29 26 59l6 8c4 5 6 12 7 20c1 7 2 16 2 51z" />
    <glyph glyph-name="Idotaccent" unicode="&#x130;" horiz-adv-x="228" 
d="M69 927v40c0 14 11 25 25 25h40c14 0 25 -11 25 -25v-40c0 -14 -11 -25 -25 -25h-40c-14 0 -25 11 -25 25zM157 800v-775c0 -14 -11 -25 -25 -25h-35c-14 0 -26 11 -26 25v775c0 14 12 25 26 25h35c14 0 25 -11 25 -25z" />
    <glyph glyph-name="IJ" unicode="&#x132;" horiz-adv-x="557" 
d="M153 800v-775c0 -14 -11 -25 -25 -25h-34c-14 0 -25 11 -25 25v775c0 14 11 25 25 25h34c14 0 25 -11 25 -25zM319 0h-38c-14 0 -26 11 -26 25v32c0 14 12 25 26 25h37c24 0 45 8 62 25c17 19 23 49 23 90v603c0 14 11 25 26 25h34c15 0 25 -11 25 -25v-614
c0 -63 -17 -102 -43 -132c-29 -33 -71 -54 -126 -54z" />
    <glyph glyph-name="ij" unicode="&#x133;" horiz-adv-x="446" 
d="M69 25v585c0 14 11 25 25 25h34c14 0 25 -11 25 -25v-585c0 -14 -11 -25 -25 -25h-34c-14 0 -25 11 -25 25zM66 760v40c0 14 11 25 25 25h40c14 0 25 -11 25 -25v-40c0 -14 -11 -25 -25 -25h-40c-14 0 -25 11 -25 25zM292 -14v624c0 14 11 25 25 25h34
c14 0 25 -11 25 -25v-608c0 -60 -12 -100 -36 -127c-25 -27 -61 -40 -115 -40h-4c-14 0 -25 11 -25 25v29c0 14 11 25 25 25h9c23 0 40 7 49 19s13 34 13 53zM289 760v40c0 14 11 25 25 25h40c14 0 25 -11 25 -25v-40c0 -14 -11 -25 -25 -25h-40c-14 0 -25 11 -25 25z" />
    <glyph glyph-name="Jcircumflex" unicode="&#x134;" horiz-adv-x="325" 
d="M94 0h-28c-14 0 -26 11 -26 25v32c0 14 12 25 26 25h27c24 0 45 8 62 25c17 19 23 49 23 90v603c0 14 11 25 26 25h34c15 0 25 -11 25 -25v-614c0 -63 -17 -102 -43 -132c-29 -33 -71 -54 -126 -54zM289 884l-46 35c-11 8 -16 10 -22 10s-11 -2 -21 -10l-47 -35
c-5 -4 -11 -8 -17 -8c-14 0 -23 10 -23 22c0 6 3 12 13 23l72 88c6 7 13 12 23 12s17 -5 23 -12l72 -88c10 -11 13 -17 13 -23c0 -12 -9 -22 -23 -22c-6 0 -12 4 -17 8z" />
    <glyph glyph-name="jcircumflex" unicode="&#x135;" horiz-adv-x="223" 
d="M70 -14v624c0 14 11 25 25 25h34c14 0 25 -11 25 -25v-608c0 -60 -12 -100 -36 -127c-25 -27 -61 -40 -115 -40h-4c-14 0 -25 11 -25 25v29c0 14 11 25 25 25h9c23 0 40 7 49 19s13 34 13 53zM180 695l-46 35c-11 8 -16 10 -22 10s-11 -2 -21 -10l-47 -35
c-5 -4 -11 -8 -17 -8c-14 0 -23 10 -23 22c0 6 3 12 13 23l72 88c6 7 13 12 23 12s17 -5 23 -12l72 -88c10 -11 13 -17 13 -23c0 -12 -9 -22 -23 -22c-6 0 -12 4 -17 8z" />
    <glyph glyph-name="uni0136" unicode="&#x136;" horiz-adv-x="470" 
d="M406 800v-226c0 -46 -5 -100 -41 -135l-8 -8c-6 -6 -8 -11 -8 -16s2 -10 8 -16l8 -8c36 -35 41 -87 41 -133v-233c0 -14 -11 -25 -25 -25h-35c-14 0 -26 11 -26 25v236c0 41 -6 71 -24 90c-16 17 -38 26 -62 26h-65c-13 0 -21 -10 -21 -23v-329c0 -14 -11 -25 -25 -25
h-35c-14 0 -26 11 -26 25v775c0 14 12 25 26 25h35c14 0 25 -11 25 -25v-321c0 -15 7 -22 22 -22h64c23 0 46 8 62 25c18 19 24 49 24 90v228c0 14 12 25 26 25h35c14 0 25 -11 25 -25zM232 -25h27c14 0 24 -10 24 -22c0 -59 -47 -108 -71 -119c-7 -3 -13 -4 -18 -4
c-12 0 -23 8 -23 24c0 12 9 18 16 26c16 19 21 43 21 72v1c0 12 10 22 24 22z" />
    <glyph glyph-name="uni0137" unicode="&#x137;" horiz-adv-x="457" 
d="M397 610v-121c0 -46 -5 -96 -40 -131l-8 -8c-6 -6 -8 -11 -8 -16s2 -10 8 -16l8 -8c35 -35 40 -85 40 -131v-154c0 -14 -11 -25 -25 -25h-34c-14 0 -25 11 -25 25v157c0 41 -6 71 -24 90c-16 17 -37 26 -61 26h-62c-13 0 -21 -10 -21 -23v-250c0 -14 -11 -25 -25 -25h-34
c-14 0 -25 11 -25 25v775c0 14 11 25 25 25h34c14 0 25 -11 25 -25v-404c0 -15 7 -22 22 -22h61c23 0 45 8 61 25c18 19 24 49 24 90v121c0 14 11 25 25 25h34c14 0 25 -11 25 -25zM226 -25h27c14 0 24 -10 24 -22c0 -59 -47 -108 -71 -119c-7 -3 -13 -4 -18 -4
c-12 0 -23 8 -23 24c0 12 9 18 16 26c16 19 21 43 21 72v1c0 12 10 22 24 22z" />
    <glyph glyph-name="kgreenlandic" unicode="&#x138;" horiz-adv-x="465" 
d="M230 295h-64c-13 0 -21 -10 -21 -23v-250c0 -15 -7 -22 -22 -22h-40c-15 0 -22 7 -22 22v591c0 15 7 22 22 22h41c14 0 21 -7 21 -22v-215c0 -15 7 -22 22 -22h63c44 0 84 26 84 81v156c0 15 7 22 22 22h39c15 0 22 -7 22 -22v-89c0 -76 -15 -134 -52 -166l-8 -7
c-5 -5 -8 -10 -8 -15s3 -10 8 -15l8 -7c37 -32 52 -90 52 -166v-126c0 -15 -7 -22 -22 -22h-40c-15 0 -22 7 -22 22v192c0 55 -39 81 -83 81z" />
    <glyph glyph-name="Lacute" unicode="&#x139;" horiz-adv-x="353" 
d="M148 800v-695c0 -13 9 -23 22 -23h120c14 0 25 -11 25 -25v-32c0 -14 -11 -25 -25 -25h-202c-14 0 -26 11 -26 25v775c0 14 12 25 26 25h35c14 0 25 -11 25 -25zM249 971l-125 -91c-7 -5 -14 -8 -20 -8c-13 0 -21 10 -21 22c0 6 3 11 12 23l58 78c13 17 21 20 42 20h46
c14 0 22 -10 22 -21c0 -7 -3 -15 -14 -23z" />
    <glyph glyph-name="lacute" unicode="&#x13a;" horiz-adv-x="222" 
d="M153 800v-775c0 -14 -11 -25 -25 -25h-34c-14 0 -25 11 -25 25v775c0 14 11 25 25 25h34c14 0 25 -11 25 -25zM235 971l-125 -91c-7 -5 -14 -8 -20 -8c-13 0 -21 10 -21 22c0 6 3 11 12 23l58 78c13 17 21 20 42 20h46c14 0 22 -10 22 -21c0 -7 -3 -15 -14 -23z" />
    <glyph glyph-name="uni013B" unicode="&#x13b;" horiz-adv-x="353" 
d="M148 800v-695c0 -13 9 -23 22 -23h120c14 0 25 -11 25 -25v-32c0 -14 -11 -25 -25 -25h-202c-14 0 -26 11 -26 25v775c0 14 12 25 26 25h35c14 0 25 -11 25 -25zM189 -25h27c14 0 24 -10 24 -22c0 -59 -47 -108 -71 -119c-7 -3 -13 -4 -18 -4c-12 0 -23 8 -23 24
c0 12 9 18 16 26c16 19 21 43 21 72v1c0 12 10 22 24 22z" />
    <glyph glyph-name="uni013C" unicode="&#x13c;" horiz-adv-x="222" 
d="M153 800v-775c0 -14 -11 -25 -25 -25h-34c-14 0 -25 11 -25 25v775c0 14 11 25 25 25h34c14 0 25 -11 25 -25zM98 -25h27c14 0 24 -10 24 -22c0 -59 -47 -108 -71 -119c-7 -3 -13 -4 -18 -4c-12 0 -23 8 -23 24c0 12 9 18 16 26c16 19 21 43 21 72v1c0 12 10 22 24 22z
" />
    <glyph glyph-name="Lcaron" unicode="&#x13d;" horiz-adv-x="353" 
d="M148 800v-695c0 -13 9 -23 22 -23h120c14 0 25 -11 25 -25v-32c0 -14 -11 -25 -25 -25h-202c-14 0 -26 11 -26 25v775c0 14 12 25 26 25h35c14 0 25 -11 25 -25zM247 800v3c0 15 7 22 22 22h27c15 0 22 -7 22 -22v-5c0 -47 -26 -106 -45 -129c-8 -10 -21 -23 -33 -23
s-23 8 -23 22c0 8 4 16 9 26l4 9c10 23 17 54 17 97z" />
    <glyph glyph-name="lcaron" unicode="&#x13e;" horiz-adv-x="362" 
d="M153 800v-775c0 -14 -11 -25 -25 -25h-34c-14 0 -25 11 -25 25v775c0 14 11 25 25 25h34c14 0 25 -11 25 -25zM266 800v3c0 15 7 22 22 22h27c15 0 22 -7 22 -22v-5c0 -47 -26 -106 -45 -129c-8 -10 -21 -23 -33 -23s-23 8 -23 22c0 8 4 16 9 26l4 9c10 23 17 54 17 97z
" />
    <glyph glyph-name="Ldot" unicode="&#x13f;" horiz-adv-x="388" 
d="M148 800v-695c0 -13 9 -23 22 -23h120c14 0 25 -11 25 -25v-32c0 -14 -11 -25 -25 -25h-202c-14 0 -26 11 -26 25v775c0 14 12 25 26 25h35c14 0 25 -11 25 -25zM243 396v45c0 14 11 25 25 25h40c14 0 25 -11 25 -25v-45c0 -14 -11 -25 -25 -25h-40c-14 0 -25 11 -25 25z
" />
    <glyph glyph-name="ldot" unicode="&#x140;" horiz-adv-x="380" 
d="M153 800v-775c0 -14 -11 -25 -25 -25h-34c-14 0 -25 11 -25 25v775c0 14 11 25 25 25h34c14 0 25 -11 25 -25zM250 396v45c0 14 11 25 25 25h40c14 0 25 -11 25 -25v-45c0 -14 -11 -25 -25 -25h-40c-14 0 -25 11 -25 25z" />
    <glyph glyph-name="lslash" unicode="&#x142;" horiz-adv-x="311" 
d="M113 25l1 316c0 18 -12 26 -31 16l-5 -3c-20 -11 -40 2 -40 27v4c0 16 6 25 22 34l36 19c14 8 17 20 17 33v329c0 14 11 25 25 25h34c14 0 25 -11 25 -25v-275c0 -18 12 -26 31 -16l5 3c20 11 40 -2 40 -27v-4c0 -16 -6 -25 -22 -34l-36 -19c-14 -8 -18 -20 -18 -33v-370
c0 -14 -11 -25 -25 -25h-34c-14 0 -25 11 -25 25z" />
    <glyph glyph-name="Nacute" unicode="&#x143;" 
d="M320 25v614c0 41 -7 71 -25 90c-16 17 -38 25 -61 25c-24 0 -45 -8 -61 -25c-19 -19 -25 -49 -25 -90v-614c0 -14 -11 -25 -25 -25h-35c-14 0 -26 11 -26 25v770c0 14 4 21 11 26c6 5 13 7 21 7c10 0 19 -4 28 -10l4 -3c8 -6 13 -8 22 -8c8 0 21 7 42 14
c16 5 39 11 63 11c37 0 79 -15 108 -46c27 -28 45 -70 45 -139v-622c0 -14 -11 -25 -25 -25h-35c-14 0 -26 11 -26 25zM320 971l-125 -91c-7 -5 -14 -8 -20 -8c-13 0 -21 10 -21 22c0 6 3 11 12 23l58 78c13 17 21 20 42 20h46c14 0 22 -10 22 -21c0 -7 -3 -15 -14 -23z" />
    <glyph glyph-name="nacute" unicode="&#x144;" horiz-adv-x="458" 
d="M313 25v424c0 41 -6 71 -24 90c-16 17 -37 25 -60 25s-44 -8 -60 -25c-18 -19 -24 -49 -24 -90v-424c0 -14 -11 -25 -25 -25h-34c-14 0 -25 11 -25 25v580c0 14 4 21 10 26s13 7 21 7c10 0 19 -5 27 -11l4 -3c8 -6 13 -8 22 -8c8 0 21 8 41 15c16 5 38 11 62 11
c36 0 76 -15 105 -46c26 -28 44 -70 44 -139v-432c0 -14 -11 -25 -25 -25h-34c-14 0 -25 11 -25 25zM314 781l-125 -91c-7 -5 -14 -8 -20 -8c-13 0 -21 10 -21 22c0 6 3 11 12 23l58 78c13 17 21 20 42 20h46c14 0 22 -10 22 -21c0 -7 -3 -15 -14 -23z" />
    <glyph glyph-name="uni0145" unicode="&#x145;" 
d="M320 25v614c0 41 -7 71 -25 90c-16 17 -38 25 -61 25c-24 0 -45 -8 -61 -25c-19 -19 -25 -49 -25 -90v-614c0 -14 -11 -25 -25 -25h-35c-14 0 -26 11 -26 25v770c0 14 4 21 11 26c6 5 13 7 21 7c10 0 19 -4 28 -10l4 -3c8 -6 13 -8 22 -8c8 0 21 7 42 14
c16 5 39 11 63 11c37 0 79 -15 108 -46c27 -28 45 -70 45 -139v-622c0 -14 -11 -25 -25 -25h-35c-14 0 -26 11 -26 25zM225 -25h27c14 0 24 -10 24 -22c0 -59 -47 -108 -71 -119c-7 -3 -13 -4 -18 -4c-12 0 -23 8 -23 24c0 12 9 18 16 26c16 19 21 43 21 72v1
c0 12 10 22 24 22z" />
    <glyph glyph-name="uni0146" unicode="&#x146;" horiz-adv-x="458" 
d="M313 25v424c0 41 -6 71 -24 90c-16 17 -37 25 -60 25s-44 -8 -60 -25c-18 -19 -24 -49 -24 -90v-424c0 -14 -11 -25 -25 -25h-34c-14 0 -25 11 -25 25v580c0 14 4 21 10 26s13 7 21 7c10 0 19 -5 27 -11l4 -3c8 -6 13 -8 22 -8c8 0 21 8 41 15c16 5 38 11 62 11
c36 0 76 -15 105 -46c26 -28 44 -70 44 -139v-432c0 -14 -11 -25 -25 -25h-34c-14 0 -25 11 -25 25zM215 -25h27c14 0 24 -10 24 -22c0 -59 -47 -108 -71 -119c-7 -3 -13 -4 -18 -4c-12 0 -23 8 -23 24c0 12 9 18 16 26c16 19 21 43 21 72v1c0 12 10 22 24 22z" />
    <glyph glyph-name="Ncaron" unicode="&#x147;" 
d="M320 25v614c0 41 -7 71 -25 90c-16 17 -38 25 -61 25c-24 0 -45 -8 -61 -25c-19 -19 -25 -49 -25 -90v-614c0 -14 -11 -25 -25 -25h-35c-14 0 -26 11 -26 25v770c0 14 4 21 11 26c6 5 13 7 21 7c10 0 19 -4 28 -10l4 -3c8 -6 13 -8 22 -8c8 0 21 7 42 14
c16 5 39 11 63 11c37 0 79 -15 108 -46c27 -28 45 -70 45 -139v-622c0 -14 -11 -25 -25 -25h-35c-14 0 -26 11 -26 25zM256 978l46 35c5 4 11 8 17 8c14 0 23 -10 23 -22c0 -6 -3 -12 -13 -23l-72 -88c-6 -7 -13 -12 -23 -12s-17 5 -23 12l-72 88c-10 11 -13 17 -13 23
c0 12 9 22 23 22c6 0 12 -4 17 -8l47 -35c10 -8 15 -10 21 -10s11 2 22 10z" />
    <glyph glyph-name="ncaron" unicode="&#x148;" horiz-adv-x="458" 
d="M313 25v424c0 41 -6 71 -24 90c-16 17 -37 25 -60 25s-44 -8 -60 -25c-18 -19 -24 -49 -24 -90v-424c0 -14 -11 -25 -25 -25h-34c-14 0 -25 11 -25 25v580c0 14 4 21 10 26s13 7 21 7c10 0 19 -5 27 -11l4 -3c8 -6 13 -8 22 -8c8 0 21 8 41 15c16 5 38 11 62 11
c36 0 76 -15 105 -46c26 -28 44 -70 44 -139v-432c0 -14 -11 -25 -25 -25h-34c-14 0 -25 11 -25 25zM250 786l46 38c5 4 11 8 17 8c14 0 23 -10 23 -22c0 -6 -3 -12 -13 -23l-72 -88c-6 -7 -13 -12 -23 -12s-17 5 -23 12l-72 88c-10 11 -13 17 -13 23c0 12 9 22 23 22
c6 0 12 -4 17 -8l47 -38c10 -8 15 -10 21 -10s11 2 22 10z" />
    <glyph glyph-name="napostrophe" unicode="&#x149;" horiz-adv-x="458" 
d="M313 25v424c0 41 -6 71 -24 90c-16 17 -37 25 -60 25s-44 -8 -60 -25c-18 -19 -24 -49 -24 -90v-424c0 -14 -11 -25 -25 -25h-34c-14 0 -25 11 -25 25v580c0 14 4 21 10 26s13 7 21 7c10 0 19 -5 27 -11l4 -3c8 -6 13 -8 22 -8c8 0 21 8 41 15c16 5 38 11 62 11
c36 0 76 -15 105 -46c26 -28 44 -70 44 -139v-432c0 -14 -11 -25 -25 -25h-34c-14 0 -25 11 -25 25zM10 800v3c0 15 7 22 22 22h27c15 0 22 -7 22 -22v-5c0 -47 -26 -106 -45 -129c-8 -10 -21 -23 -33 -23s-23 8 -23 22c0 8 4 16 9 26l4 9c10 23 17 54 17 97z" />
    <glyph glyph-name="Omacron" unicode="&#x14c;" 
d="M234 71c24 0 45 8 61 25c19 19 25 49 25 90v453c0 41 -6 71 -25 90c-16 17 -37 25 -61 25s-45 -8 -61 -25c-19 -19 -25 -49 -25 -90v-453c0 -41 6 -71 25 -90c16 -17 37 -25 61 -25zM234 -7c-55 0 -99 21 -129 54c-26 30 -43 69 -43 132v467c0 63 17 102 43 132
c30 33 74 54 129 54s99 -21 129 -54c26 -30 43 -69 43 -132v-467c0 -63 -17 -102 -43 -132c-30 -33 -74 -54 -129 -54zM346 950v-9c0 -15 -7 -22 -22 -22h-180c-15 0 -22 7 -22 22v9c0 15 7 22 22 22h180c15 0 22 -7 22 -22z" />
    <glyph glyph-name="omacron" unicode="&#x14d;" horiz-adv-x="458" 
d="M145 449v-263c0 -41 6 -71 24 -90c16 -17 37 -25 60 -25s44 8 60 25c18 19 24 49 24 90v263c0 41 -6 71 -24 90c-16 17 -37 25 -60 25s-44 -8 -60 -25c-18 -19 -24 -49 -24 -90zM397 456v-277c0 -63 -16 -102 -42 -132c-29 -33 -72 -54 -126 -54s-97 21 -126 54
c-26 30 -42 69 -42 132v277c0 63 16 102 42 132c29 33 72 54 126 54s97 -21 126 -54c26 -30 42 -69 42 -132zM355 769v-15c0 -15 -7 -22 -22 -22h-210c-15 0 -22 7 -22 22v15c0 15 7 22 22 22h210c15 0 22 -7 22 -22z" />
    <glyph glyph-name="Obreve" unicode="&#x14e;" horiz-adv-x="467" 
d="M233 71c24 0 45 8 61 25c19 19 25 49 25 90v453c0 41 -6 71 -25 90c-16 17 -37 25 -61 25s-45 -8 -61 -25c-19 -19 -25 -49 -25 -90v-453c0 -41 6 -71 25 -90c16 -17 37 -25 61 -25zM233 -7c-55 0 -99 21 -129 54c-26 30 -43 69 -43 132v467c0 63 17 102 43 132
c30 33 74 54 129 54s99 -21 129 -54c26 -30 43 -69 43 -132v-467c0 -63 -17 -102 -43 -132c-30 -33 -74 -54 -129 -54zM234 878c-49 0 -96 33 -96 92c0 31 5 49 27 49c7 0 13 -3 17 -8s6 -13 6 -22v-5c0 -29 21 -46 46 -46s46 17 46 46v5c0 9 2 17 6 22s10 8 17 8
c22 0 27 -18 27 -49c0 -59 -45 -92 -96 -92z" />
    <glyph glyph-name="obreve" unicode="&#x14f;" horiz-adv-x="458" 
d="M145 449v-263c0 -41 6 -71 24 -90c16 -17 37 -25 60 -25s44 8 60 25c18 19 24 49 24 90v263c0 41 -6 71 -24 90c-16 17 -37 25 -60 25s-44 -8 -60 -25c-18 -19 -24 -49 -24 -90zM397 456v-277c0 -63 -16 -102 -42 -132c-29 -33 -72 -54 -126 -54s-97 21 -126 54
c-26 30 -42 69 -42 132v277c0 63 16 102 42 132c29 33 72 54 126 54s97 -21 126 -54c26 -30 42 -69 42 -132zM228 688c-49 0 -96 33 -96 92c0 31 5 49 27 49c7 0 13 -3 17 -8s6 -13 6 -22v-5c0 -29 21 -46 46 -46s46 17 46 46v5c0 9 2 17 6 22s10 8 17 8c22 0 27 -18 27 -49
c0 -59 -45 -92 -96 -92z" />
    <glyph glyph-name="Ohungarumlaut" unicode="&#x150;" 
d="M244 71c24 0 45 8 61 25c19 19 25 49 25 90v453c0 41 -6 71 -25 90c-16 17 -37 25 -61 25s-45 -8 -61 -25c-19 -19 -25 -49 -25 -90v-453c0 -41 6 -71 25 -90c16 -17 37 -25 61 -25zM244 -7c-55 0 -99 21 -129 54c-26 30 -43 69 -43 132v467c0 63 17 102 43 132
c30 33 74 54 129 54s99 -21 129 -54c26 -30 43 -69 43 -132v-467c0 -63 -17 -102 -43 -132c-30 -33 -74 -54 -129 -54zM410 974l-118 -96c-5 -4 -11 -8 -17 -8c-14 0 -23 10 -23 22c0 6 2 12 12 23l67 80c14 16 21 20 42 20h25c13 0 22 -11 22 -21c0 -7 -2 -13 -10 -20z
M270 974l-118 -96c-5 -4 -11 -8 -17 -8c-14 0 -23 10 -23 22c0 6 2 12 12 23l67 80c14 16 21 20 42 20h25c13 0 22 -11 22 -21c0 -7 -2 -13 -10 -20z" />
    <glyph glyph-name="ohungarumlaut" unicode="&#x151;" horiz-adv-x="458" 
d="M158 449v-263c0 -41 6 -71 24 -90c16 -17 37 -25 60 -25s44 8 60 25c18 19 24 49 24 90v263c0 41 -6 71 -24 90c-16 17 -37 25 -60 25s-44 -8 -60 -25c-18 -19 -24 -49 -24 -90zM410 456v-277c0 -63 -16 -102 -42 -132c-29 -33 -72 -54 -126 -54s-97 21 -126 54
c-26 30 -42 69 -42 132v277c0 63 16 102 42 132c29 33 72 54 126 54s97 -21 126 -54c26 -30 42 -69 42 -132zM420 784l-118 -96c-5 -4 -11 -8 -17 -8c-14 0 -23 10 -23 22c0 6 2 12 12 23l67 80c14 16 21 20 42 20h25c13 0 22 -11 22 -21c0 -7 -2 -13 -10 -20zM280 784
l-118 -96c-5 -4 -11 -8 -17 -8c-14 0 -23 10 -23 22c0 6 2 12 12 23l67 80c14 16 21 20 42 20h25c13 0 22 -11 22 -21c0 -7 -2 -13 -10 -20z" />
    <glyph glyph-name="Racute" unicode="&#x154;" 
d="M404 241v-216c0 -14 -11 -25 -25 -25h-35c-14 0 -26 11 -26 25v216c0 41 -6 71 -24 90c-16 17 -38 26 -62 26h-60c-13 0 -22 -10 -22 -23v-309c0 -14 -11 -25 -25 -25h-35c-14 0 -26 11 -26 25v775c0 14 12 25 26 25h144c55 0 98 -21 127 -54c27 -30 43 -69 43 -132v-88
c0 -46 -5 -96 -41 -131l-8 -8c-6 -6 -8 -11 -8 -16s2 -10 8 -16l8 -8c36 -35 41 -85 41 -131zM173 437h59c23 0 46 8 62 25c18 19 24 49 24 90v77c0 41 -5 71 -23 90c-16 17 -38 25 -61 25h-58c-17 0 -26 -7 -26 -22v-263c0 -15 8 -22 23 -22zM310 971l-125 -91
c-7 -5 -14 -8 -20 -8c-13 0 -21 10 -21 22c0 6 3 11 12 23l58 78c13 17 21 20 42 20h46c14 0 22 -10 22 -21c0 -7 -3 -15 -14 -23z" />
    <glyph glyph-name="racute" unicode="&#x155;" horiz-adv-x="315" 
d="M158 447v-422c0 -14 -11 -25 -25 -25h-34c-14 0 -25 11 -25 25v580c0 14 4 21 10 26s13 7 21 7c10 0 19 -5 27 -11l4 -3c8 -6 13 -8 22 -8c8 0 21 6 41 13c18 6 39 10 60 10h18c15 0 26 -9 26 -25v-33c0 -14 -11 -25 -25 -25h-29c-34 0 -55 -7 -70 -23
c-16 -18 -21 -47 -21 -86zM270 781l-125 -91c-7 -5 -14 -8 -20 -8c-13 0 -21 10 -21 22c0 6 3 11 12 23l58 78c13 17 21 20 42 20h46c14 0 22 -10 22 -21c0 -7 -3 -15 -14 -23z" />
    <glyph glyph-name="uni0156" unicode="&#x156;" 
d="M404 241v-216c0 -14 -11 -25 -25 -25h-35c-14 0 -26 11 -26 25v216c0 41 -6 71 -24 90c-16 17 -38 26 -62 26h-60c-13 0 -22 -10 -22 -23v-309c0 -14 -11 -25 -25 -25h-35c-14 0 -26 11 -26 25v775c0 14 12 25 26 25h144c55 0 98 -21 127 -54c27 -30 43 -69 43 -132v-88
c0 -46 -5 -96 -41 -131l-8 -8c-6 -6 -8 -11 -8 -16s2 -10 8 -16l8 -8c36 -35 41 -85 41 -131zM173 437h59c23 0 46 8 62 25c18 19 24 49 24 90v77c0 41 -5 71 -23 90c-16 17 -38 25 -61 25h-58c-17 0 -26 -7 -26 -22v-263c0 -15 8 -22 23 -22zM226 -25h27
c14 0 24 -10 24 -22c0 -59 -47 -108 -71 -119c-7 -3 -13 -4 -18 -4c-12 0 -23 8 -23 24c0 12 9 18 16 26c16 19 21 43 21 72v1c0 12 10 22 24 22z" />
    <glyph glyph-name="uni0157" unicode="&#x157;" horiz-adv-x="315" 
d="M130 447v-422c0 -14 -11 -25 -25 -25h-34c-14 0 -25 11 -25 25v580c0 14 4 21 10 26s13 7 21 7c10 0 19 -5 27 -11l4 -3c8 -6 13 -8 22 -8c8 0 21 6 41 13c18 6 39 10 60 10h18c15 0 26 -9 26 -25v-33c0 -14 -11 -25 -25 -25h-29c-34 0 -55 -7 -70 -23
c-16 -18 -21 -47 -21 -86zM74 -25h27c14 0 24 -10 24 -22c0 -59 -47 -108 -71 -119c-7 -3 -13 -4 -18 -4c-12 0 -23 8 -23 24c0 12 9 18 16 26c16 19 21 43 21 72v1c0 12 10 22 24 22z" />
    <glyph glyph-name="Rcaron" unicode="&#x158;" 
d="M404 241v-216c0 -14 -11 -25 -25 -25h-35c-14 0 -26 11 -26 25v216c0 41 -6 71 -24 90c-16 17 -38 26 -62 26h-60c-13 0 -22 -10 -22 -23v-309c0 -14 -11 -25 -25 -25h-35c-14 0 -26 11 -26 25v775c0 14 12 25 26 25h144c55 0 98 -21 127 -54c27 -30 43 -69 43 -132v-88
c0 -46 -5 -96 -41 -131l-8 -8c-6 -6 -8 -11 -8 -16s2 -10 8 -16l8 -8c36 -35 41 -85 41 -131zM173 437h59c23 0 46 8 62 25c18 19 24 49 24 90v77c0 41 -5 71 -23 90c-16 17 -38 25 -61 25h-58c-17 0 -26 -7 -26 -22v-263c0 -15 8 -22 23 -22zM256 978l46 35c5 4 11 8 17 8
c14 0 23 -10 23 -22c0 -6 -3 -12 -13 -23l-72 -88c-6 -7 -13 -12 -23 -12s-17 5 -23 12l-72 88c-10 11 -13 17 -13 23c0 12 9 22 23 22c6 0 12 -4 17 -8l47 -35c10 -8 15 -10 21 -10s11 2 22 10z" />
    <glyph glyph-name="rcaron" unicode="&#x159;" horiz-adv-x="315" 
d="M128 447v-422c0 -14 -11 -25 -25 -25h-34c-14 0 -25 11 -25 25v580c0 14 4 21 10 26s13 7 21 7c10 0 19 -5 27 -11l4 -3c8 -6 13 -8 22 -8c8 0 21 6 41 13c18 6 39 10 60 10h18c15 0 26 -9 26 -25v-33c0 -14 -11 -25 -25 -25h-29c-34 0 -55 -7 -70 -23
c-16 -18 -21 -47 -21 -86zM177 786l46 38c5 4 11 8 17 8c14 0 23 -10 23 -22c0 -6 -3 -12 -13 -23l-72 -88c-6 -7 -13 -12 -23 -12s-17 5 -23 12l-72 88c-10 11 -13 17 -13 23c0 12 9 22 23 22c6 0 12 -4 17 -8l47 -38c10 -8 15 -10 21 -10s11 2 22 10z" />
    <glyph glyph-name="Sacute" unicode="&#x15a;" horiz-adv-x="463" 
d="M315 593v49c0 40 -7 69 -24 88c-17 16 -38 24 -60 24c-23 0 -44 -8 -61 -24c-17 -19 -23 -48 -23 -88v-74c0 -35 4 -55 15 -70c9 -14 23 -25 54 -40l79 -36c34 -15 60 -33 79 -60c20 -28 29 -60 29 -116v-70c0 -68 -22 -115 -59 -145c-30 -24 -68 -38 -112 -38
c-55 0 -99 21 -129 54c-26 30 -43 69 -43 132v61c0 14 12 25 26 25h35c14 0 25 -11 25 -25v-54c0 -41 6 -71 23 -90c17 -17 37 -25 65 -25c22 0 44 8 60 24c17 19 23 48 23 88v57c0 35 -4 55 -15 71c-9 13 -23 25 -55 40l-79 35c-33 15 -59 36 -78 63c-19 28 -29 59 -29 115
v85c0 68 23 115 59 145c30 24 69 38 113 38c54 0 98 -21 126 -53c27 -30 42 -69 42 -131v-55c0 -14 -11 -25 -26 -25h-34c-15 0 -26 11 -26 25zM320 971l-125 -91c-7 -5 -14 -8 -20 -8c-13 0 -21 10 -21 22c0 6 3 11 12 23l58 78c13 17 21 20 42 20h46c14 0 22 -10 22 -21
c0 -7 -3 -15 -14 -23z" />
    <glyph glyph-name="sacute" unicode="&#x15b;" horiz-adv-x="451" 
d="M224 564c-23 0 -43 -7 -59 -23c-15 -15 -21 -38 -21 -72v-2c0 -18 5 -41 13 -54s19 -22 46 -34l70 -31c56 -25 76 -43 93 -66c17 -24 26 -52 26 -93v-26c0 -107 -73 -170 -167 -170c-54 0 -95 21 -124 54c-26 30 -42 69 -42 132v15c0 14 11 25 25 25h34
c14 0 25 -11 25 -25v-1c0 -41 6 -78 23 -97c16 -17 36 -25 59 -25s45 7 61 23c15 15 23 38 23 72v4c0 25 -5 49 -14 62c-8 12 -22 26 -49 38l-70 31c-56 25 -73 42 -90 65c-17 24 -25 56 -25 97v9c0 107 69 170 163 170c54 0 97 -21 126 -54c25 -29 42 -66 42 -123v-7
c0 -14 -11 -25 -25 -25h-34c-14 0 -25 11 -25 25c0 35 -8 64 -24 81s-37 25 -60 25zM314 781l-125 -91c-7 -5 -14 -8 -20 -8c-13 0 -21 10 -21 22c0 6 3 11 12 23l58 78c13 17 21 20 42 20h46c14 0 22 -10 22 -21c0 -7 -3 -15 -14 -23z" />
    <glyph glyph-name="Scircumflex" unicode="&#x15c;" horiz-adv-x="463" 
d="M315 593v49c0 40 -7 69 -24 88c-17 16 -38 24 -60 24c-23 0 -44 -8 -61 -24c-17 -19 -23 -48 -23 -88v-74c0 -35 4 -55 15 -70c9 -14 23 -25 54 -40l79 -36c34 -15 60 -33 79 -60c20 -28 29 -60 29 -116v-70c0 -68 -22 -115 -59 -145c-30 -24 -68 -38 -112 -38
c-55 0 -99 21 -129 54c-26 30 -43 69 -43 132v61c0 14 12 25 26 25h35c14 0 25 -11 25 -25v-54c0 -41 6 -71 23 -90c17 -17 37 -25 65 -25c22 0 44 8 60 24c17 19 23 48 23 88v57c0 35 -4 55 -15 71c-9 13 -23 25 -55 40l-79 35c-33 15 -59 36 -78 63c-19 28 -29 59 -29 115
v85c0 68 23 115 59 145c30 24 69 38 113 38c54 0 98 -21 126 -53c27 -30 42 -69 42 -131v-55c0 -14 -11 -25 -26 -25h-34c-15 0 -26 11 -26 25zM302 884l-46 35c-11 8 -16 10 -22 10s-11 -2 -21 -10l-47 -35c-5 -4 -11 -8 -17 -8c-14 0 -23 10 -23 22c0 6 3 12 13 23l72 88
c6 7 13 12 23 12s17 -5 23 -12l72 -88c10 -11 13 -17 13 -23c0 -12 -9 -22 -23 -22c-6 0 -12 4 -17 8z" />
    <glyph glyph-name="scircumflex" unicode="&#x15d;" horiz-adv-x="451" 
d="M224 564c-23 0 -43 -7 -59 -23c-15 -15 -21 -38 -21 -72v-2c0 -18 5 -41 13 -54s19 -22 46 -34l70 -31c56 -25 76 -43 93 -66c17 -24 26 -52 26 -93v-26c0 -107 -73 -170 -167 -170c-54 0 -95 21 -124 54c-26 30 -42 69 -42 132v15c0 14 11 25 25 25h34
c14 0 25 -11 25 -25v-1c0 -41 6 -78 23 -97c16 -17 36 -25 59 -25s45 7 61 23c15 15 23 38 23 72v4c0 25 -5 49 -14 62c-8 12 -22 26 -49 38l-70 31c-56 25 -73 42 -90 65c-17 24 -25 56 -25 97v9c0 107 69 170 163 170c54 0 97 -21 126 -54c25 -29 42 -66 42 -123v-7
c0 -14 -11 -25 -25 -25h-34c-14 0 -25 11 -25 25c0 35 -8 64 -24 81s-37 25 -60 25zM296 695l-46 35c-11 8 -16 10 -22 10s-11 -2 -21 -10l-47 -35c-5 -4 -11 -8 -17 -8c-14 0 -23 10 -23 22c0 6 3 12 13 23l72 88c6 7 13 12 23 12s17 -5 23 -12l72 -88
c10 -11 13 -17 13 -23c0 -12 -9 -22 -23 -22c-6 0 -12 4 -17 8z" />
    <glyph glyph-name="Scedilla" unicode="&#x15e;" horiz-adv-x="463" 
d="M315 593v49c0 40 -7 69 -24 88c-17 16 -38 24 -60 24c-23 0 -44 -8 -61 -24c-17 -19 -23 -48 -23 -88v-74c0 -35 4 -55 15 -70c9 -14 23 -25 54 -40l79 -36c34 -15 60 -33 79 -60c20 -28 29 -60 29 -116v-70c0 -68 -22 -115 -59 -145c-30 -24 -68 -38 -112 -38
c-55 0 -99 21 -129 54c-26 30 -43 69 -43 132v61c0 14 12 25 26 25h35c14 0 25 -11 25 -25v-54c0 -41 6 -71 23 -90c17 -17 37 -25 65 -25c22 0 44 8 60 24c17 19 23 48 23 88v57c0 35 -4 55 -15 71c-9 13 -23 25 -55 40l-79 35c-33 15 -59 36 -78 63c-19 28 -29 59 -29 115
v85c0 68 23 115 59 145c30 24 69 38 113 38c54 0 98 -21 126 -53c27 -30 42 -69 42 -131v-55c0 -14 -11 -25 -26 -25h-34c-15 0 -26 11 -26 25zM298 -97c0 -46 -34 -74 -78 -74c-9 0 -19 1 -28 3c-12 3 -21 9 -21 22c0 22 15 23 35 24s31 11 31 25s-11 24 -31 25
s-35 2 -35 24c0 12 8 18 19 21c9 3 20 4 30 4c44 0 78 -28 78 -74z" />
    <glyph glyph-name="scedilla" unicode="&#x15f;" horiz-adv-x="451" 
d="M224 564c-23 0 -43 -7 -59 -23c-15 -15 -21 -38 -21 -72v-2c0 -18 5 -41 13 -54s19 -22 46 -34l70 -31c56 -25 76 -43 93 -66c17 -24 26 -52 26 -93v-26c0 -107 -73 -170 -167 -170c-54 0 -95 21 -124 54c-26 30 -42 69 -42 132v15c0 14 11 25 25 25h34
c14 0 25 -11 25 -25v-1c0 -41 6 -78 23 -97c16 -17 36 -25 59 -25s45 7 61 23c15 15 23 38 23 72v4c0 25 -5 49 -14 62c-8 12 -22 26 -49 38l-70 31c-56 25 -73 42 -90 65c-17 24 -25 56 -25 97v9c0 107 69 170 163 170c54 0 97 -21 126 -54c25 -29 42 -66 42 -123v-7
c0 -14 -11 -25 -25 -25h-34c-14 0 -25 11 -25 25c0 35 -8 64 -24 81s-37 25 -60 25zM292 -97c0 -46 -34 -74 -78 -74c-9 0 -19 1 -28 3c-12 3 -21 9 -21 22c0 22 15 23 35 24s31 11 31 25s-11 24 -31 25s-35 2 -35 24c0 12 8 18 19 21c9 3 20 4 30 4c44 0 78 -28 78 -74z
" />
    <glyph glyph-name="Scaron" unicode="&#x160;" horiz-adv-x="463" 
d="M315 593v49c0 40 -7 69 -24 88c-17 16 -38 24 -60 24c-23 0 -44 -8 -61 -24c-17 -19 -23 -48 -23 -88v-74c0 -35 4 -55 15 -70c9 -14 23 -25 54 -40l79 -36c34 -15 60 -33 79 -60c20 -28 29 -60 29 -116v-70c0 -68 -22 -115 -59 -145c-30 -24 -68 -38 -112 -38
c-55 0 -99 21 -129 54c-26 30 -43 69 -43 132v61c0 14 12 25 26 25h35c14 0 25 -11 25 -25v-54c0 -41 6 -71 23 -90c17 -17 37 -25 65 -25c22 0 44 8 60 24c17 19 23 48 23 88v57c0 35 -4 55 -15 71c-9 13 -23 25 -55 40l-79 35c-33 15 -59 36 -78 63c-19 28 -29 59 -29 115
v85c0 68 23 115 59 145c30 24 69 38 113 38c54 0 98 -21 126 -53c27 -30 42 -69 42 -131v-55c0 -14 -11 -25 -26 -25h-34c-15 0 -26 11 -26 25zM253 978l46 35c5 4 11 8 17 8c14 0 23 -10 23 -22c0 -6 -3 -12 -13 -23l-72 -88c-6 -7 -13 -12 -23 -12s-17 5 -23 12l-72 88
c-10 11 -13 17 -13 23c0 12 9 22 23 22c6 0 12 -4 17 -8l47 -35c10 -8 15 -10 21 -10s11 2 22 10z" />
    <glyph glyph-name="scaron" unicode="&#x161;" horiz-adv-x="451" 
d="M224 564c-23 0 -43 -7 -59 -23c-15 -15 -21 -38 -21 -72v-2c0 -18 5 -41 13 -54s19 -22 46 -34l70 -31c56 -25 76 -43 93 -66c17 -24 26 -52 26 -93v-26c0 -107 -73 -170 -167 -170c-54 0 -95 21 -124 54c-26 30 -42 69 -42 132v15c0 14 11 25 25 25h34
c14 0 25 -11 25 -25v-1c0 -41 6 -78 23 -97c16 -17 36 -25 59 -25s45 7 61 23c15 15 23 38 23 72v4c0 25 -5 49 -14 62c-8 12 -22 26 -49 38l-70 31c-56 25 -73 42 -90 65c-17 24 -25 56 -25 97v9c0 107 69 170 163 170c54 0 97 -21 126 -54c25 -29 42 -66 42 -123v-7
c0 -14 -11 -25 -25 -25h-34c-14 0 -25 11 -25 25c0 35 -8 64 -24 81s-37 25 -60 25zM246 786l46 38c5 4 11 8 17 8c14 0 23 -10 23 -22c0 -6 -3 -12 -13 -23l-72 -88c-6 -7 -13 -12 -23 -12s-17 5 -23 12l-72 88c-10 11 -13 17 -13 23c0 12 9 22 23 22c6 0 12 -4 17 -8
l47 -38c10 -8 15 -10 21 -10s11 2 22 10z" />
    <glyph glyph-name="uni0162" unicode="&#x162;" horiz-adv-x="412" 
d="M54 825h305c14 0 25 -11 25 -25v-32c0 -14 -11 -25 -25 -25h-88c-13 0 -22 -11 -22 -24v-694c0 -14 -11 -25 -26 -25h-34c-15 0 -26 11 -26 25v694c0 13 -9 24 -22 24h-87c-14 0 -26 11 -26 25v32c0 14 12 25 26 25zM267 -97c0 -46 -34 -74 -78 -74c-9 0 -19 1 -28 3
c-12 3 -21 9 -21 22c0 22 15 23 35 24s31 11 31 25s-11 24 -31 25s-35 2 -35 24c0 12 8 18 19 21c9 3 20 4 30 4c44 0 78 -28 78 -74z" />
    <glyph glyph-name="uni0163" unicode="&#x163;" horiz-adv-x="336" 
d="M88 556h-37c-14 0 -25 11 -25 25v29c0 14 11 25 25 25h37c13 0 22 11 22 24v70c0 14 11 25 25 25h34c14 0 25 -11 25 -25v-70c0 -13 9 -24 22 -24h69c14 0 25 -11 25 -25v-29c0 -14 -11 -25 -25 -25h-69c-13 0 -22 -10 -22 -23v-403c0 -19 5 -32 13 -39
c6 -6 18 -12 32 -12h46c14 0 25 -11 25 -25v-29c0 -14 -11 -25 -25 -25h-34c-54 0 -89 11 -112 36c-19 21 -29 50 -29 98v399c0 13 -9 23 -22 23zM243 -97c0 -46 -34 -74 -78 -74c-9 0 -19 1 -28 3c-12 3 -21 9 -21 22c0 22 15 23 35 24s31 11 31 25s-11 24 -31 25
s-35 2 -35 24c0 12 8 18 19 21c9 3 20 4 30 4c44 0 78 -28 78 -74z" />
    <glyph glyph-name="Tcaron" unicode="&#x164;" horiz-adv-x="412" 
d="M54 825h305c14 0 25 -11 25 -25v-32c0 -14 -11 -25 -25 -25h-88c-13 0 -22 -11 -22 -24v-694c0 -14 -11 -25 -26 -25h-34c-15 0 -26 11 -26 25v694c0 13 -9 24 -22 24h-87c-14 0 -26 11 -26 25v32c0 14 12 25 26 25zM228 978l46 35c5 4 11 8 17 8c14 0 23 -10 23 -22
c0 -6 -3 -12 -13 -23l-72 -88c-6 -7 -13 -12 -23 -12s-17 5 -23 12l-72 88c-10 11 -13 17 -13 23c0 12 9 22 23 22c6 0 12 -4 17 -8l47 -35c10 -8 15 -10 21 -10s11 2 22 10z" />
    <glyph glyph-name="tcaron" unicode="&#x165;" horiz-adv-x="336" 
d="M258 801v3c0 15 7 22 22 22h27c15 0 22 -7 22 -22v-5c0 -37 -25 -82 -44 -105c-8 -10 -21 -23 -33 -23s-23 8 -23 22c0 8 4 16 9 26l4 9c10 23 16 47 16 73zM88 556h-37c-14 0 -25 11 -25 25v29c0 14 11 25 25 25h37c13 0 22 11 22 24v70c0 14 11 25 25 25h34
c14 0 25 -11 25 -25v-70c0 -13 9 -24 22 -24h69c14 0 25 -11 25 -25v-29c0 -14 -11 -25 -25 -25h-69c-13 0 -22 -10 -22 -23v-403c0 -19 5 -32 13 -39c6 -6 18 -12 32 -12h46c14 0 25 -11 25 -25v-29c0 -14 -11 -25 -25 -25h-34c-54 0 -89 11 -112 36c-19 21 -29 50 -29 98
v399c0 13 -9 23 -22 23z" />
    <glyph glyph-name="Tbar" unicode="&#x166;" horiz-adv-x="412" 
d="M163 23v332c0 13 -9 24 -22 24h-56c-16 0 -25 10 -25 22v32c0 15 9 22 25 22h56c13 0 22 10 22 23v243c0 13 -9 22 -22 22h-90c-15 0 -23 7 -23 22v38c0 12 8 22 23 22h310c15 0 22 -7 22 -22v-38c0 -12 -7 -22 -22 -22h-90c-13 0 -22 -9 -22 -22v-243
c0 -13 9 -23 22 -23h56c16 0 25 -7 25 -22v-32c0 -12 -9 -22 -25 -22h-56c-13 0 -22 -11 -22 -24v-332c0 -15 -7 -23 -23 -23h-41c-13 0 -22 10 -22 23z" />
    <glyph glyph-name="tbar" unicode="&#x167;" horiz-adv-x="336" 
d="M194 273v-111c0 -51 21 -80 60 -80h34c15 0 22 -10 22 -22v-38c0 -15 -7 -22 -22 -22h-25c-91 0 -153 46 -153 151v122c0 13 -9 23 -22 23h-40c-15 0 -22 10 -22 22v35c0 15 7 22 22 22h40c13 0 22 11 22 24v134c0 13 -9 23 -22 23h-40c-15 0 -22 10 -22 22v35
c0 15 7 22 22 22h40c13 0 22 11 22 24v73c0 13 9 23 22 23h40c15 0 22 -8 22 -23v-73c0 -13 9 -24 22 -24h72c15 0 22 -10 22 -22v-35c0 -15 -7 -22 -22 -22h-72c-13 0 -22 -10 -22 -23v-134c0 -13 9 -24 22 -24h52c15 0 22 -10 22 -22v-35c0 -15 -7 -22 -22 -22h-52
c-13 0 -22 -10 -22 -23z" />
    <glyph glyph-name="Utilde" unicode="&#x168;" 
d="M320 186v614c0 14 12 25 26 25h35c14 0 25 -11 25 -25v-621c0 -63 -16 -102 -43 -132c-29 -33 -74 -54 -129 -54s-99 21 -129 54c-26 30 -43 69 -43 132v621c0 14 12 25 26 25h35c14 0 25 -11 25 -25v-614c0 -41 6 -71 25 -90c16 -17 37 -25 61 -25c23 0 46 8 62 25
c18 19 24 49 24 90zM220 915l-10 9c-10 9 -15 13 -24 13c-10 0 -18 -7 -21 -18l-2 -8c-3 -10 -12 -18 -24 -18s-23 10 -23 25c0 39 41 77 75 77c23 0 41 -6 58 -21l10 -9c10 -9 15 -13 24 -13c10 0 18 7 21 18l2 8c3 10 11 18 23 18s23 -10 23 -24c0 -40 -38 -78 -72 -78
c-23 0 -43 6 -60 21z" />
    <glyph glyph-name="utilde" unicode="&#x169;" horiz-adv-x="458" 
d="M145 610v-424c0 -41 6 -71 24 -90c16 -17 37 -25 60 -25s44 8 60 25c18 19 24 49 24 90v424c0 14 11 25 25 25h34c14 0 25 -11 25 -25v-582c0 -14 -4 -21 -10 -26s-13 -7 -21 -7c-10 0 -19 5 -27 11l-4 3c-8 6 -13 8 -22 8c-8 0 -21 -7 -41 -14c-16 -5 -38 -10 -62 -10
c-36 0 -76 15 -105 46c-26 28 -44 70 -44 139v432c0 14 11 25 25 25h34c14 0 25 -11 25 -25zM214 745l-10 9c-10 9 -15 13 -24 13c-10 0 -18 -7 -21 -18l-2 -8c-3 -10 -12 -18 -24 -18s-23 10 -23 25c0 39 41 77 75 77c23 0 41 -6 58 -21l10 -9c10 -9 15 -13 24 -13
c10 0 18 7 21 18l2 8c3 10 11 18 23 18s23 -10 23 -24c0 -40 -38 -78 -72 -78c-23 0 -43 6 -60 21z" />
    <glyph glyph-name="Umacron" unicode="&#x16a;" 
d="M320 186v614c0 14 12 25 26 25h35c14 0 25 -11 25 -25v-621c0 -63 -16 -102 -43 -132c-29 -33 -74 -54 -129 -54s-99 21 -129 54c-26 30 -43 69 -43 132v621c0 14 12 25 26 25h35c14 0 25 -11 25 -25v-614c0 -41 6 -71 25 -90c16 -17 37 -25 61 -25c23 0 46 8 62 25
c18 19 24 49 24 90zM346 950v-9c0 -15 -7 -22 -22 -22h-180c-15 0 -22 7 -22 22v9c0 15 7 22 22 22h180c15 0 22 -7 22 -22z" />
    <glyph glyph-name="umacron" unicode="&#x16b;" horiz-adv-x="458" 
d="M145 610v-424c0 -41 6 -71 24 -90c16 -17 37 -25 60 -25s44 8 60 25c18 19 24 49 24 90v424c0 14 11 25 25 25h34c14 0 25 -11 25 -25v-582c0 -14 -4 -21 -10 -26s-13 -7 -21 -7c-10 0 -19 5 -27 11l-4 3c-8 6 -13 8 -22 8c-8 0 -21 -7 -41 -14c-16 -5 -38 -10 -62 -10
c-36 0 -76 15 -105 46c-26 28 -44 70 -44 139v432c0 14 11 25 25 25h34c14 0 25 -11 25 -25zM355 769v-15c0 -15 -7 -22 -22 -22h-210c-15 0 -22 7 -22 22v15c0 15 7 22 22 22h210c15 0 22 -7 22 -22z" />
    <glyph glyph-name="Ubreve" unicode="&#x16c;" 
d="M320 186v614c0 14 12 25 26 25h35c14 0 25 -11 25 -25v-621c0 -63 -16 -102 -43 -132c-29 -33 -74 -54 -129 -54s-99 21 -129 54c-26 30 -43 69 -43 132v621c0 14 12 25 26 25h35c14 0 25 -11 25 -25v-614c0 -41 6 -71 25 -90c16 -17 37 -25 61 -25c23 0 46 8 62 25
c18 19 24 49 24 90zM234 878c-49 0 -96 33 -96 92c0 31 5 49 27 49c7 0 13 -3 17 -8s6 -13 6 -22v-5c0 -29 21 -46 46 -46s46 17 46 46v5c0 9 2 17 6 22s10 8 17 8c22 0 27 -18 27 -49c0 -59 -45 -92 -96 -92z" />
    <glyph glyph-name="ubreve" unicode="&#x16d;" horiz-adv-x="458" 
d="M145 610v-424c0 -41 6 -71 24 -90c16 -17 37 -25 60 -25s44 8 60 25c18 19 24 49 24 90v424c0 14 11 25 25 25h34c14 0 25 -11 25 -25v-582c0 -14 -4 -21 -10 -26s-13 -7 -21 -7c-10 0 -19 5 -27 11l-4 3c-8 6 -13 8 -22 8c-8 0 -21 -7 -41 -14c-16 -5 -38 -10 -62 -10
c-36 0 -76 15 -105 46c-26 28 -44 70 -44 139v432c0 14 11 25 25 25h34c14 0 25 -11 25 -25zM228 688c-49 0 -96 33 -96 92c0 31 5 49 27 49c7 0 13 -3 17 -8s6 -13 6 -22v-5c0 -29 21 -46 46 -46s46 17 46 46v5c0 9 2 17 6 22s10 8 17 8c22 0 27 -18 27 -49
c0 -59 -45 -92 -96 -92z" />
    <glyph glyph-name="Uring" unicode="&#x16e;" 
d="M320 186v614c0 14 12 25 26 25h35c14 0 25 -11 25 -25v-621c0 -63 -16 -102 -43 -132c-29 -33 -74 -54 -129 -54s-99 21 -129 54c-26 30 -43 69 -43 132v621c0 14 12 25 26 25h35c14 0 25 -11 25 -25v-614c0 -41 6 -71 25 -90c16 -17 37 -25 61 -25c23 0 46 8 62 25
c18 19 24 49 24 90zM205 944c0 -16 13 -29 29 -29s29 13 29 29s-13 29 -29 29s-29 -13 -29 -29zM156 944c0 43 35 78 78 78s78 -35 78 -78s-35 -78 -78 -78s-78 35 -78 78z" />
    <glyph glyph-name="uring" unicode="&#x16f;" horiz-adv-x="458" 
d="M145 610v-424c0 -41 6 -71 24 -90c16 -17 37 -25 60 -25s44 8 60 25c18 19 24 49 24 90v424c0 14 11 25 25 25h34c14 0 25 -11 25 -25v-582c0 -14 -4 -21 -10 -26s-13 -7 -21 -7c-10 0 -19 5 -27 11l-4 3c-8 6 -13 8 -22 8c-8 0 -21 -7 -41 -14c-16 -5 -38 -10 -62 -10
c-36 0 -76 15 -105 46c-26 28 -44 70 -44 139v432c0 14 11 25 25 25h34c14 0 25 -11 25 -25zM199 754c0 -16 13 -29 29 -29s29 13 29 29s-13 29 -29 29s-29 -13 -29 -29zM150 754c0 43 35 78 78 78s78 -35 78 -78s-35 -78 -78 -78s-78 35 -78 78z" />
    <glyph glyph-name="Uhungarumlaut" unicode="&#x170;" 
d="M328 186v614c0 14 12 25 26 25h35c14 0 25 -11 25 -25v-621c0 -63 -16 -102 -43 -132c-29 -33 -74 -54 -129 -54s-99 21 -129 54c-26 30 -43 69 -43 132v621c0 14 12 25 26 25h35c14 0 25 -11 25 -25v-614c0 -41 6 -71 25 -90c16 -17 37 -25 61 -25c23 0 46 8 62 25
c18 19 24 49 24 90zM410 974l-118 -96c-5 -4 -11 -8 -17 -8c-14 0 -23 10 -23 22c0 6 2 12 12 23l67 80c14 16 21 20 42 20h25c13 0 22 -11 22 -21c0 -7 -2 -13 -10 -20zM270 974l-118 -96c-5 -4 -11 -8 -17 -8c-14 0 -23 10 -23 22c0 6 2 12 12 23l67 80c14 16 21 20 42 20
h25c13 0 22 -11 22 -21c0 -7 -2 -13 -10 -20z" />
    <glyph glyph-name="uhungarumlaut" unicode="&#x171;" horiz-adv-x="458" 
d="M169 610v-424c0 -41 6 -71 24 -90c16 -17 37 -25 60 -25s44 8 60 25c18 19 24 49 24 90v424c0 14 11 25 25 25h34c14 0 25 -11 25 -25v-582c0 -14 -4 -21 -10 -26s-13 -7 -21 -7c-10 0 -19 5 -27 11l-4 3c-8 6 -13 8 -22 8c-8 0 -21 -7 -41 -14c-16 -5 -38 -10 -62 -10
c-36 0 -76 15 -105 46c-26 28 -44 70 -44 139v432c0 14 11 25 25 25h34c14 0 25 -11 25 -25zM422 784l-118 -96c-5 -4 -11 -8 -17 -8c-14 0 -23 10 -23 22c0 6 2 12 12 23l67 80c14 16 21 20 42 20h25c13 0 22 -11 22 -21c0 -7 -2 -13 -10 -20zM282 784l-118 -96
c-5 -4 -11 -8 -17 -8c-14 0 -23 10 -23 22c0 6 2 12 12 23l67 80c14 16 21 20 42 20h25c13 0 22 -11 22 -21c0 -7 -2 -13 -10 -20z" />
    <glyph glyph-name="Uogonek" unicode="&#x172;" 
d="M62 179v621c0 14 12 25 26 25h35c14 0 25 -11 25 -25v-614c0 -41 6 -71 25 -90c16 -17 37 -25 61 -25c23 0 45 8 61 25c18 19 24 49 24 90v614c0 14 12 25 26 25h35c14 0 25 -11 25 -25v-616c0 -52 -6 -86 -42 -136l-79 -110c-8 -11 -16 -19 -16 -30c0 -13 13 -21 23 -21
c11 0 18 12 30 12c15 0 24 -13 24 -23c0 -27 -36 -47 -74 -47c-48 0 -77 27 -77 59c0 30 19 45 30 58l7 9c5 5 8 12 8 18c0 12 -9 21 -22 22l-11 1c-44 4 -75 20 -101 51c-26 30 -43 69 -43 132z" />
    <glyph glyph-name="uogonek" unicode="&#x173;" horiz-adv-x="458" 
d="M270 3c-18 -6 -38 -10 -57 -10c-39 0 -78 14 -108 46c-26 28 -44 70 -44 139v432c0 14 11 25 25 25h34c14 0 25 -11 25 -25v-424c0 -41 6 -71 24 -90c16 -17 37 -25 60 -25s44 8 60 25c18 19 24 49 24 90v424c0 14 11 25 25 25h34c14 0 25 -11 25 -25v-596
c0 -23 -4 -39 -21 -56l-28 -24c-15 -13 -25 -19 -25 -32s12 -21 22 -21c11 0 18 12 30 12c14 0 22 -12 22 -22c0 -15 -23 -42 -76 -42c-42 0 -71 23 -71 61c0 27 22 46 36 58l28 23c16 13 18 17 18 25c0 12 -10 22 -21 22c-10 0 -21 -8 -41 -15z" />
    <glyph glyph-name="Wcircumflex" unicode="&#x174;" horiz-adv-x="708" 
d="M63 177l-1 623c0 14 12 25 26 25h35c14 0 25 -11 25 -25v-620c0 -39 5 -67 23 -85c16 -17 36 -24 58 -24s43 7 58 24c17 18 24 46 24 85v620c0 14 12 25 26 25h35c14 0 25 -11 25 -25v-620c0 -39 5 -67 23 -85c16 -17 36 -24 58 -24s43 7 58 24c17 18 24 46 24 85v620
c0 14 12 25 26 25h35c14 0 25 -11 25 -25v-623c0 -69 -24 -109 -50 -137c-29 -31 -71 -47 -107 -47c-39 0 -78 9 -111 34l-8 6c-6 4 -11 6 -15 6c-5 0 -10 -2 -15 -6l-7 -6c-33 -29 -73 -34 -112 -34c-36 0 -82 16 -111 47c-26 28 -47 68 -47 137zM422 884l-46 35
c-11 8 -16 10 -22 10s-11 -2 -21 -10l-47 -35c-5 -4 -11 -8 -17 -8c-14 0 -23 10 -23 22c0 6 3 12 13 23l72 88c6 7 13 12 23 12s17 -5 23 -12l72 -88c10 -11 13 -17 13 -23c0 -12 -9 -22 -23 -22c-6 0 -12 4 -17 8z" />
    <glyph glyph-name="wcircumflex" unicode="&#x175;" horiz-adv-x="693" 
d="M632 610v-438c0 -67 -24 -106 -49 -133c-28 -30 -70 -46 -105 -46s-67 6 -98 25c-6 4 -13 9 -19 14c-5 4 -9 6 -14 6s-10 -2 -15 -6c-6 -5 -12 -9 -17 -13c-32 -19 -65 -26 -100 -26s-80 16 -108 46c-26 27 -46 66 -46 133v438c0 14 11 25 25 25h34c14 0 25 -11 25 -25
v-431c0 -38 6 -66 23 -84c15 -16 35 -23 57 -23s42 7 57 23c17 18 22 46 22 84v431c0 14 11 25 25 25h34c14 0 25 -11 25 -25v-431c0 -38 7 -66 24 -84c15 -16 35 -23 57 -23s42 7 57 23c17 18 22 46 22 84v431c0 14 11 25 25 25h26c14 0 33 -11 33 -25zM414 695l-46 35
c-11 8 -16 10 -22 10s-11 -2 -21 -10l-47 -35c-5 -4 -11 -8 -17 -8c-14 0 -23 10 -23 22c0 6 3 12 13 23l72 88c6 7 13 12 23 12s17 -5 23 -12l72 -88c10 -11 13 -17 13 -23c0 -12 -9 -22 -23 -22c-6 0 -12 4 -17 8z" />
    <glyph glyph-name="Ycircumflex" unicode="&#x176;" 
d="M192 25v284c0 9 -5 17 -14 22l-12 5c-68 30 -104 85 -104 176v288c0 14 12 25 26 25h35c14 0 25 -11 25 -25v-282c0 -41 6 -71 25 -90c16 -17 37 -25 61 -25c23 0 46 8 62 25c18 19 24 49 24 90v282c0 14 12 25 26 25h35c14 0 25 -11 25 -25v-288
c0 -98 -51 -158 -102 -176l-11 -4c-8 -4 -15 -10 -15 -21v-286c0 -14 -12 -25 -26 -25h-35c-14 0 -25 11 -25 25zM302 884l-46 35c-11 8 -16 10 -22 10s-11 -2 -21 -10l-47 -35c-5 -4 -11 -8 -17 -8c-14 0 -23 10 -23 22c0 6 3 12 13 23l72 88c6 7 13 12 23 12s17 -5 23 -12
l72 -88c10 -11 13 -17 13 -23c0 -12 -9 -22 -23 -22c-6 0 -12 4 -17 8z" />
    <glyph glyph-name="ycircumflex" unicode="&#x177;" horiz-adv-x="458" 
d="M61 241v369c0 14 11 25 25 25h34c14 0 25 -11 25 -25v-364c0 -41 6 -71 24 -90c16 -17 37 -25 60 -25s44 8 60 25c18 19 24 49 24 90v364c0 14 11 25 25 25h34c14 0 25 -11 25 -25v-593c0 -49 -13 -101 -48 -138c-32 -33 -75 -50 -120 -50s-88 17 -120 50
c-27 28 -46 68 -46 106v3c0 14 11 25 25 25h31c16 0 25 -9 28 -26l1 -5c4 -21 8 -38 21 -51c16 -16 37 -24 60 -24s44 8 60 24c18 19 24 46 24 85v30c0 13 -8 23 -21 23c-8 0 -16 -5 -25 -7l-11 -3c-13 -4 -31 -6 -45 -6c-31 0 -72 14 -103 46c-35 37 -47 85 -47 142z
M296 695l-46 35c-11 8 -16 10 -22 10s-11 -2 -21 -10l-47 -35c-5 -4 -11 -8 -17 -8c-14 0 -23 10 -23 22c0 6 3 12 13 23l72 88c6 7 13 12 23 12s17 -5 23 -12l72 -88c10 -11 13 -17 13 -23c0 -12 -9 -22 -23 -22c-6 0 -12 4 -17 8z" />
    <glyph glyph-name="Ydieresis" unicode="&#x178;" 
d="M192 25v284c0 9 -5 17 -14 22l-12 5c-68 30 -104 85 -104 176v288c0 14 12 25 26 25h35c14 0 25 -11 25 -25v-282c0 -41 6 -71 25 -90c16 -17 37 -25 61 -25c23 0 46 8 62 25c18 19 24 49 24 90v282c0 14 12 25 26 25h35c14 0 25 -11 25 -25v-288
c0 -98 -51 -158 -102 -176l-11 -4c-8 -4 -15 -10 -15 -21v-286c0 -14 -12 -25 -26 -25h-35c-14 0 -25 11 -25 25zM98 932v32c0 14 11 25 25 25h32c14 0 25 -11 25 -25v-32c0 -14 -11 -25 -25 -25h-32c-14 0 -25 11 -25 25zM289 932v32c0 14 11 25 25 25h32
c14 0 25 -11 25 -25v-32c0 -14 -11 -25 -25 -25h-32c-14 0 -25 11 -25 25z" />
    <glyph glyph-name="Zacute" unicode="&#x179;" horiz-adv-x="406" 
d="M54 25v24c0 21 3 34 8 48l181 609c1 2 3 12 3 14c0 12 -8 22 -23 22h-139c-15 0 -26 11 -26 25v33c0 14 11 25 26 25h237c15 0 26 -11 26 -25v-34c0 -9 -4 -25 -8 -38l-181 -609c-1 -2 -3 -12 -3 -14c0 -12 8 -22 22 -22h148c15 0 26 -11 26 -25v-33
c0 -14 -11 -25 -26 -25h-245c-15 0 -26 11 -26 25zM289 971l-125 -91c-7 -5 -14 -8 -20 -8c-13 0 -21 10 -21 22c0 6 3 11 12 23l58 78c13 17 21 20 42 20h46c14 0 22 -10 22 -21c0 -7 -3 -15 -14 -23z" />
    <glyph glyph-name="zacute" unicode="&#x17a;" horiz-adv-x="386" 
d="M52 25v24c0 21 3 34 8 48l162 423c1 2 3 12 3 14c0 12 -8 22 -22 22h-123c-14 0 -25 11 -25 25v29c0 14 11 25 25 25h222c14 0 25 -11 25 -25v-34c0 -9 -2 -22 -8 -38l-163 -423c-1 -2 -3 -12 -3 -14c0 -12 8 -22 22 -22h135c14 0 25 -11 25 -25v-29
c0 -14 -11 -25 -25 -25h-233c-14 0 -25 11 -25 25zM273 781l-125 -91c-7 -5 -14 -8 -20 -8c-13 0 -21 10 -21 22c0 6 3 11 12 23l58 78c13 17 21 20 42 20h46c14 0 22 -10 22 -21c0 -7 -3 -15 -14 -23z" />
    <glyph glyph-name="Zdotaccent" unicode="&#x17b;" horiz-adv-x="406" 
d="M54 25v24c0 21 3 34 8 48l181 609c1 2 3 12 3 14c0 12 -8 22 -23 22h-139c-15 0 -26 11 -26 25v33c0 14 11 25 26 25h237c15 0 26 -11 26 -25v-34c0 -9 -4 -25 -8 -38l-181 -609c-1 -2 -3 -12 -3 -14c0 -12 8 -22 22 -22h148c15 0 26 -11 26 -25v-33
c0 -14 -11 -25 -26 -25h-245c-15 0 -26 11 -26 25zM154 927v40c0 14 11 25 25 25h40c14 0 25 -11 25 -25v-40c0 -14 -11 -25 -25 -25h-40c-14 0 -25 11 -25 25z" />
    <glyph glyph-name="zdotaccent" unicode="&#x17c;" horiz-adv-x="386" 
d="M52 25v24c0 21 3 34 8 48l162 423c1 2 3 12 3 14c0 12 -8 22 -22 22h-123c-14 0 -25 11 -25 25v29c0 14 11 25 25 25h222c14 0 25 -11 25 -25v-34c0 -9 -2 -22 -8 -38l-163 -423c-1 -2 -3 -12 -3 -14c0 -12 8 -22 22 -22h135c14 0 25 -11 25 -25v-29
c0 -14 -11 -25 -25 -25h-233c-14 0 -25 11 -25 25zM143 760v40c0 14 11 25 25 25h40c14 0 25 -11 25 -25v-40c0 -14 -11 -25 -25 -25h-40c-14 0 -25 11 -25 25z" />
    <glyph glyph-name="Zcaron" unicode="&#x17d;" horiz-adv-x="406" 
d="M54 25v24c0 21 3 34 8 48l181 609c1 2 3 12 3 14c0 12 -8 22 -23 22h-139c-15 0 -26 11 -26 25v33c0 14 11 25 26 25h237c15 0 26 -11 26 -25v-34c0 -9 -4 -25 -8 -38l-181 -609c-1 -2 -3 -12 -3 -14c0 -12 8 -22 22 -22h148c15 0 26 -11 26 -25v-33
c0 -14 -11 -25 -26 -25h-245c-15 0 -26 11 -26 25zM223 978l46 35c5 4 11 8 17 8c14 0 23 -10 23 -22c0 -6 -3 -12 -13 -23l-72 -88c-6 -7 -13 -12 -23 -12s-17 5 -23 12l-72 88c-10 11 -13 17 -13 23c0 12 9 22 23 22c6 0 12 -4 17 -8l47 -35c10 -8 15 -10 21 -10
s11 2 22 10z" />
    <glyph glyph-name="zcaron" unicode="&#x17e;" horiz-adv-x="386" 
d="M51 25v24c0 21 3 34 8 48l162 423c1 2 3 12 3 14c0 12 -8 22 -22 22h-123c-14 0 -25 11 -25 25v29c0 14 11 25 25 25h222c14 0 25 -11 25 -25v-34c0 -9 -2 -22 -8 -38l-163 -423c-1 -2 -3 -12 -3 -14c0 -12 8 -22 22 -22h135c14 0 25 -11 25 -25v-29
c0 -14 -11 -25 -25 -25h-233c-14 0 -25 11 -25 25zM214 786l46 38c5 4 11 8 17 8c14 0 23 -10 23 -22c0 -6 -3 -12 -13 -23l-72 -88c-6 -7 -13 -12 -23 -12s-17 5 -23 12l-72 88c-10 11 -13 17 -13 23c0 12 9 22 23 22c6 0 12 -4 17 -8l47 -38c10 -8 15 -10 21 -10
s11 2 22 10z" />
    <glyph glyph-name="longs" unicode="&#x17f;" horiz-adv-x="273" 
d="M201 681v-656c0 -14 -11 -25 -25 -25h-34c-14 0 -25 11 -25 25v507c0 13 -9 24 -22 24h-44c-14 0 -25 11 -25 25v29c0 14 11 25 25 25h44c13 0 22 10 22 23v13c0 26 2 47 6 64c6 23 16 40 30 54c17 16 43 36 110 36h28c14 0 25 -11 25 -25v-29c0 -14 -11 -25 -25 -25h-20
c-34 0 -48 -6 -57 -16s-13 -28 -13 -49z" />
    <glyph glyph-name="uni0218" unicode="&#x218;" horiz-adv-x="463" 
d="M315 593v49c0 40 -7 69 -24 88c-17 16 -38 24 -60 24c-23 0 -44 -8 -61 -24c-17 -19 -23 -48 -23 -88v-74c0 -35 4 -55 15 -70c9 -14 23 -25 54 -40l79 -36c34 -15 60 -33 79 -60c20 -28 29 -60 29 -116v-70c0 -68 -22 -115 -59 -145c-30 -24 -68 -38 -112 -38
c-55 0 -99 21 -129 54c-26 30 -43 69 -43 132v61c0 14 12 25 26 25h35c14 0 25 -11 25 -25v-54c0 -41 6 -71 23 -90c17 -17 37 -25 65 -25c22 0 44 8 60 24c17 19 23 48 23 88v57c0 35 -4 55 -15 71c-9 13 -23 25 -55 40l-79 35c-33 15 -59 36 -78 63c-19 28 -29 59 -29 115
v85c0 68 23 115 59 145c30 24 69 38 113 38c54 0 98 -21 126 -53c27 -30 42 -69 42 -131v-55c0 -14 -11 -25 -26 -25h-34c-15 0 -26 11 -26 25zM221 -25h27c14 0 24 -10 24 -22c0 -59 -47 -108 -71 -119c-7 -3 -13 -4 -18 -4c-12 0 -23 8 -23 24c0 12 9 18 16 26
c16 19 21 43 21 72v1c0 12 10 22 24 22z" />
    <glyph glyph-name="uni0219" unicode="&#x219;" horiz-adv-x="451" 
d="M224 564c-23 0 -43 -7 -59 -23c-15 -15 -21 -38 -21 -72v-2c0 -18 5 -41 13 -54s19 -22 46 -34l70 -31c56 -25 76 -43 93 -66c17 -24 26 -52 26 -93v-26c0 -107 -73 -170 -167 -170c-54 0 -95 21 -124 54c-26 30 -42 69 -42 132v15c0 14 11 25 25 25h34
c14 0 25 -11 25 -25v-1c0 -41 6 -78 23 -97c16 -17 36 -25 59 -25s45 7 61 23c15 15 23 38 23 72v4c0 25 -5 49 -14 62c-8 12 -22 26 -49 38l-70 31c-56 25 -73 42 -90 65c-17 24 -25 56 -25 97v9c0 107 69 170 163 170c54 0 97 -21 126 -54c25 -29 42 -66 42 -123v-7
c0 -14 -11 -25 -25 -25h-34c-14 0 -25 11 -25 25c0 35 -8 64 -24 81s-37 25 -60 25zM220 -25h27c14 0 24 -10 24 -22c0 -59 -47 -108 -71 -119c-7 -3 -13 -4 -18 -4c-12 0 -23 8 -23 24c0 12 9 18 16 26c16 19 21 43 21 72v1c0 12 10 22 24 22z" />
    <glyph glyph-name="uni021A" unicode="&#x21a;" horiz-adv-x="412" 
d="M54 825h305c14 0 25 -11 25 -25v-32c0 -14 -11 -25 -25 -25h-88c-13 0 -22 -11 -22 -24v-694c0 -14 -11 -25 -26 -25h-34c-15 0 -26 11 -26 25v694c0 13 -9 24 -22 24h-87c-14 0 -26 11 -26 25v32c0 14 12 25 26 25zM192 -25h27c14 0 24 -10 24 -22
c0 -59 -47 -108 -71 -119c-7 -3 -13 -4 -18 -4c-12 0 -23 8 -23 24c0 12 9 18 16 26c16 19 21 43 21 72v1c0 12 10 22 24 22z" />
    <glyph glyph-name="uni021B" unicode="&#x21b;" horiz-adv-x="364" 
d="M88 556h-37c-14 0 -25 11 -25 25v29c0 14 11 25 25 25h37c13 0 22 11 22 24v70c0 14 11 25 25 25h34c14 0 25 -11 25 -25v-70c0 -13 9 -24 22 -24h69c14 0 25 -11 25 -25v-29c0 -14 -11 -25 -25 -25h-69c-13 0 -22 -10 -22 -23v-403c0 -19 5 -32 13 -39
c6 -6 18 -12 32 -12h46c14 0 25 -11 25 -25v-29c0 -14 -11 -25 -25 -25h-34c-54 0 -89 11 -112 36c-19 21 -29 50 -29 98v399c0 13 -9 23 -22 23zM175 -25h27c14 0 24 -10 24 -22c0 -59 -47 -108 -71 -119c-7 -3 -13 -4 -18 -4c-12 0 -23 8 -23 24c0 12 9 18 16 26
c16 19 21 43 21 72v1c0 12 10 22 24 22z" />
    <glyph glyph-name="Wgrave" unicode="&#x1e80;" horiz-adv-x="708" 
d="M63 177l-1 623c0 14 12 25 26 25h35c14 0 25 -11 25 -25v-620c0 -39 5 -67 23 -85c16 -17 36 -24 58 -24s43 7 58 24c17 18 24 46 24 85v620c0 14 12 25 26 25h35c14 0 25 -11 25 -25v-620c0 -39 5 -67 23 -85c16 -17 36 -24 58 -24s43 7 58 24c17 18 24 46 24 85v620
c0 14 12 25 26 25h35c14 0 25 -11 25 -25v-623c0 -69 -24 -109 -50 -137c-29 -31 -71 -47 -107 -47c-39 0 -78 9 -111 34l-8 6c-6 4 -11 6 -15 6c-5 0 -10 -2 -15 -6l-7 -6c-33 -29 -73 -34 -112 -34c-36 0 -82 16 -111 47c-26 28 -47 68 -47 137zM363 880l-125 91
c-11 8 -14 16 -14 23c0 11 8 21 22 21h46c21 0 29 -3 42 -20l58 -78c9 -12 12 -17 12 -23c0 -12 -8 -22 -21 -22c-6 0 -13 3 -20 8z" />
    <glyph glyph-name="wgrave" unicode="&#x1e81;" horiz-adv-x="693" 
d="M632 610v-438c0 -67 -24 -106 -49 -133c-28 -30 -70 -46 -105 -46s-67 6 -98 25c-6 4 -13 9 -19 14c-5 4 -9 6 -14 6s-10 -2 -15 -6c-6 -5 -12 -9 -17 -13c-32 -19 -65 -26 -100 -26s-80 16 -108 46c-26 27 -46 66 -46 133v438c0 14 11 25 25 25h34c14 0 25 -11 25 -25
v-431c0 -38 6 -66 23 -84c15 -16 35 -23 57 -23s42 7 57 23c17 18 22 46 22 84v431c0 14 11 25 25 25h34c14 0 25 -11 25 -25v-431c0 -38 7 -66 24 -84c15 -16 35 -23 57 -23s42 7 57 23c17 18 22 46 22 84v431c0 14 11 25 25 25h26c14 0 33 -11 33 -25zM357 690l-132 94
c-8 7 -9 13 -9 20c0 11 8 21 22 21h43c21 0 28 -4 42 -20l63 -79c10 -11 12 -16 12 -22c0 -12 -8 -22 -21 -22c-6 0 -13 2 -20 8z" />
    <glyph glyph-name="Wacute" unicode="&#x1e82;" horiz-adv-x="708" 
d="M63 177l-1 623c0 14 12 25 26 25h35c14 0 25 -11 25 -25v-620c0 -39 5 -67 23 -85c16 -17 36 -24 58 -24s43 7 58 24c17 18 24 46 24 85v620c0 14 12 25 26 25h35c14 0 25 -11 25 -25v-620c0 -39 5 -67 23 -85c16 -17 36 -24 58 -24s43 7 58 24c17 18 24 46 24 85v620
c0 14 12 25 26 25h35c14 0 25 -11 25 -25v-623c0 -69 -24 -109 -50 -137c-29 -31 -71 -47 -107 -47c-39 0 -78 9 -111 34l-8 6c-6 4 -11 6 -15 6c-5 0 -10 -2 -15 -6l-7 -6c-33 -29 -73 -34 -112 -34c-36 0 -82 16 -111 47c-26 28 -47 68 -47 137zM473 971l-125 -91
c-7 -5 -14 -8 -20 -8c-13 0 -21 10 -21 22c0 6 3 11 12 23l58 78c13 17 21 20 42 20h46c14 0 22 -10 22 -21c0 -7 -3 -15 -14 -23z" />
    <glyph glyph-name="wacute" unicode="&#x1e83;" horiz-adv-x="693" 
d="M632 610v-438c0 -67 -24 -106 -49 -133c-28 -30 -70 -46 -105 -46s-67 6 -98 25c-6 4 -13 9 -19 14c-5 4 -9 6 -14 6s-10 -2 -15 -6c-6 -5 -12 -9 -17 -13c-32 -19 -65 -26 -100 -26s-80 16 -108 46c-26 27 -46 66 -46 133v438c0 14 11 25 25 25h34c14 0 25 -11 25 -25
v-431c0 -38 6 -66 23 -84c15 -16 35 -23 57 -23s42 7 57 23c17 18 22 46 22 84v431c0 14 11 25 25 25h34c14 0 25 -11 25 -25v-431c0 -38 7 -66 24 -84c15 -16 35 -23 57 -23s42 7 57 23c17 18 22 46 22 84v431c0 14 11 25 25 25h26c14 0 33 -11 33 -25zM470 781l-125 -91
c-7 -5 -14 -8 -20 -8c-13 0 -21 10 -21 22c0 6 3 11 12 23l58 78c13 17 21 20 42 20h46c14 0 22 -10 22 -21c0 -7 -3 -15 -14 -23z" />
    <glyph glyph-name="Wdieresis" unicode="&#x1e84;" horiz-adv-x="708" 
d="M63 177l-1 623c0 14 12 25 26 25h35c14 0 25 -11 25 -25v-620c0 -39 5 -67 23 -85c16 -17 36 -24 58 -24s43 7 58 24c17 18 24 46 24 85v620c0 14 12 25 26 25h35c14 0 25 -11 25 -25v-620c0 -39 5 -67 23 -85c16 -17 36 -24 58 -24s43 7 58 24c17 18 24 46 24 85v620
c0 14 12 25 26 25h35c14 0 25 -11 25 -25v-623c0 -69 -24 -109 -50 -137c-29 -31 -71 -47 -107 -47c-39 0 -78 9 -111 34l-8 6c-6 4 -11 6 -15 6c-5 0 -10 -2 -15 -6l-7 -6c-33 -29 -73 -34 -112 -34c-36 0 -82 16 -111 47c-26 28 -47 68 -47 137zM218 932v32
c0 14 11 25 25 25h32c14 0 25 -11 25 -25v-32c0 -14 -11 -25 -25 -25h-32c-14 0 -25 11 -25 25zM409 932v32c0 14 11 25 25 25h32c14 0 25 -11 25 -25v-32c0 -14 -11 -25 -25 -25h-32c-14 0 -25 11 -25 25z" />
    <glyph glyph-name="wdieresis" unicode="&#x1e85;" horiz-adv-x="693" 
d="M632 610v-438c0 -67 -24 -106 -49 -133c-28 -30 -70 -46 -105 -46s-67 6 -98 25c-6 4 -13 9 -19 14c-5 4 -9 6 -14 6s-10 -2 -15 -6c-6 -5 -12 -9 -17 -13c-32 -19 -65 -26 -100 -26s-80 16 -108 46c-26 27 -46 66 -46 133v438c0 14 11 25 25 25h34c14 0 25 -11 25 -25
v-431c0 -38 6 -66 23 -84c15 -16 35 -23 57 -23s42 7 57 23c17 18 22 46 22 84v431c0 14 11 25 25 25h34c14 0 25 -11 25 -25v-431c0 -38 7 -66 24 -84c15 -16 35 -23 57 -23s42 7 57 23c17 18 22 46 22 84v431c0 14 11 25 25 25h26c14 0 33 -11 33 -25zM210 745v32
c0 14 11 25 25 25h32c14 0 25 -11 25 -25v-32c0 -14 -11 -25 -25 -25h-32c-14 0 -25 11 -25 25zM401 745v32c0 14 11 25 25 25h32c14 0 25 -11 25 -25v-32c0 -14 -11 -25 -25 -25h-32c-14 0 -25 11 -25 25z" />
    <glyph glyph-name="yacute" unicode="&#xfd;" horiz-adv-x="458" 
d="M61 241v369c0 14 11 25 25 25h34c14 0 25 -11 25 -25v-364c0 -41 6 -71 24 -90c16 -17 37 -25 60 -25s44 8 60 25c18 19 24 49 24 90v364c0 14 11 25 25 25h34c14 0 25 -11 25 -25v-593c0 -49 -13 -101 -48 -138c-32 -33 -75 -50 -120 -50s-88 17 -120 50
c-27 28 -46 68 -46 106v3c0 14 11 25 25 25h31c16 0 25 -9 28 -26l1 -5c4 -21 8 -38 21 -51c16 -16 37 -24 60 -24s44 8 60 24c18 19 24 46 24 85v30c0 13 -8 23 -21 23c-8 0 -16 -5 -25 -7l-11 -3c-13 -4 -31 -6 -45 -6c-31 0 -72 14 -103 46c-35 37 -47 85 -47 142z
M314 781l-125 -91c-7 -5 -14 -8 -20 -8c-13 0 -21 10 -21 22c0 6 3 11 12 23l58 78c13 17 21 20 42 20h46c14 0 22 -10 22 -21c0 -7 -3 -15 -14 -23z" />
    <glyph glyph-name="Agrave" unicode="&#xc0;" 
d="M170 427h128c12 0 22 10 22 22v190c0 41 -6 71 -25 90c-16 17 -37 25 -61 25s-45 -8 -61 -25c-19 -19 -25 -49 -25 -90v-190c0 -12 10 -22 22 -22zM298 347h-128c-12 0 -22 -10 -22 -22v-300c0 -14 -11 -25 -25 -25h-35c-14 0 -26 11 -26 25v621c0 63 17 102 43 132
c30 33 74 54 129 54s99 -21 129 -54c26 -30 43 -69 43 -132v-621c0 -14 -12 -25 -26 -25h-35c-14 0 -25 11 -25 25v300c0 12 -10 22 -22 22zM273 880l-125 91c-11 8 -14 16 -14 23c0 11 8 21 22 21h46c21 0 29 -3 42 -20l58 -78c9 -12 12 -17 12 -23c0 -12 -8 -22 -21 -22
c-6 0 -13 3 -20 8z" />
    <glyph glyph-name="Aacute" unicode="&#xc1;" horiz-adv-x="457" 
d="M165 427h128c12 0 22 10 22 22v190c0 41 -6 71 -25 90c-16 17 -37 25 -61 25s-45 -8 -61 -25c-19 -19 -25 -49 -25 -90v-190c0 -12 10 -22 22 -22zM293 347h-128c-12 0 -22 -10 -22 -22v-300c0 -14 -11 -25 -25 -25h-35c-14 0 -26 11 -26 25v621c0 63 17 102 43 132
c30 33 74 54 129 54s99 -21 129 -54c26 -30 43 -69 43 -132v-621c0 -14 -12 -25 -26 -25h-35c-14 0 -25 11 -25 25v300c0 12 -10 22 -22 22zM320 971l-125 -91c-7 -5 -14 -8 -20 -8c-13 0 -21 10 -21 22c0 6 3 11 12 23l58 78c13 17 21 20 42 20h46c14 0 22 -10 22 -21
c0 -7 -3 -15 -14 -23z" />
    <glyph glyph-name="Acircumflex" unicode="&#xc2;" horiz-adv-x="457" 
d="M169 427h128c12 0 22 10 22 22v190c0 41 -6 71 -25 90c-16 17 -37 25 -61 25s-45 -8 -61 -25c-19 -19 -25 -49 -25 -90v-190c0 -12 10 -22 22 -22zM297 347h-128c-12 0 -22 -10 -22 -22v-300c0 -14 -11 -25 -25 -25h-35c-14 0 -26 11 -26 25v621c0 63 17 102 43 132
c30 33 74 54 129 54s99 -21 129 -54c26 -30 43 -69 43 -132v-621c0 -14 -12 -25 -26 -25h-35c-14 0 -25 11 -25 25v300c0 12 -10 22 -22 22zM302 884l-46 35c-11 8 -16 10 -22 10s-11 -2 -21 -10l-47 -35c-5 -4 -11 -8 -17 -8c-14 0 -23 10 -23 22c0 6 3 12 13 23l72 88
c6 7 13 12 23 12s17 -5 23 -12l72 -88c10 -11 13 -17 13 -23c0 -12 -9 -22 -23 -22c-6 0 -12 4 -17 8z" />
    <glyph glyph-name="Atilde" unicode="&#xc3;" 
d="M170 427h128c12 0 22 10 22 22v190c0 41 -6 71 -25 90c-16 17 -37 25 -61 25s-45 -8 -61 -25c-19 -19 -25 -49 -25 -90v-190c0 -12 10 -22 22 -22zM298 347h-128c-12 0 -22 -10 -22 -22v-300c0 -14 -11 -25 -25 -25h-35c-14 0 -26 11 -26 25v621c0 63 17 102 43 132
c30 33 74 54 129 54s99 -21 129 -54c26 -30 43 -69 43 -132v-621c0 -14 -12 -25 -26 -25h-35c-14 0 -25 11 -25 25v300c0 12 -10 22 -22 22zM220 915l-10 9c-10 9 -15 13 -24 13c-10 0 -18 -7 -21 -18l-2 -8c-3 -10 -12 -18 -24 -18s-23 10 -23 25c0 39 41 77 75 77
c23 0 41 -6 58 -21l10 -9c10 -9 15 -13 24 -13c10 0 18 7 21 18l2 8c3 10 11 18 23 18s23 -10 23 -24c0 -40 -38 -78 -72 -78c-23 0 -43 6 -60 21z" />
    <glyph glyph-name="Egrave" unicode="&#xc8;" horiz-adv-x="367" 
d="M298 0h-210c-14 0 -26 11 -26 25v775c0 14 12 25 26 25h210c14 0 25 -11 25 -25v-32c0 -14 -11 -22 -25 -25h-128c-13 0 -22 -10 -22 -23v-239c0 -13 9 -23 22 -23h128c14 0 25 -11 25 -25v-32c0 -14 -11 -25 -25 -25h-128c-13 0 -22 -10 -22 -23v-248
c0 -13 9 -23 22 -23h128c14 0 25 -11 25 -25v-32c0 -14 -11 -25 -25 -25zM240 880l-125 91c-11 8 -14 16 -14 23c0 11 8 21 22 21h46c21 0 29 -3 42 -20l58 -78c9 -12 12 -17 12 -23c0 -12 -8 -22 -21 -22c-6 0 -13 3 -20 8z" />
    <glyph glyph-name="Ecircumflex" unicode="&#xca;" horiz-adv-x="367" 
d="M298 0h-210c-14 0 -26 11 -26 25v775c0 14 12 25 26 25h210c14 0 25 -11 25 -25v-32c0 -14 -11 -22 -25 -25h-128c-13 0 -22 -10 -22 -23v-239c0 -13 9 -23 22 -23h128c14 0 25 -11 25 -25v-32c0 -14 -11 -25 -25 -25h-128c-13 0 -22 -10 -22 -23v-248
c0 -13 9 -23 22 -23h128c14 0 25 -11 25 -25v-32c0 -14 -11 -25 -25 -25zM263 884l-46 35c-11 8 -16 10 -22 10s-11 -2 -21 -10l-47 -35c-5 -4 -11 -8 -17 -8c-14 0 -23 10 -23 22c0 6 3 12 13 23l72 88c6 7 13 12 23 12s17 -5 23 -12l72 -88c10 -11 13 -17 13 -23
c0 -12 -9 -22 -23 -22c-6 0 -12 4 -17 8z" />
    <glyph glyph-name="Edieresis" unicode="&#xcb;" horiz-adv-x="374" 
d="M298 0h-210c-14 0 -26 11 -26 25v775c0 14 12 25 26 25h210c14 0 25 -11 25 -25v-32c0 -14 -11 -22 -25 -25h-128c-13 0 -22 -10 -22 -23v-239c0 -13 9 -23 22 -23h128c14 0 25 -11 25 -25v-32c0 -14 -11 -25 -25 -25h-128c-13 0 -22 -10 -22 -23v-248
c0 -13 9 -23 22 -23h128c14 0 25 -11 25 -25v-32c0 -14 -11 -25 -25 -25zM62 932v32c0 14 11 25 25 25h32c14 0 25 -11 25 -25v-32c0 -14 -11 -25 -25 -25h-32c-14 0 -25 11 -25 25zM241 932v32c0 14 11 25 25 25h32c14 0 25 -11 25 -25v-32c0 -14 -11 -25 -25 -25h-32
c-14 0 -25 11 -25 25z" />
    <glyph glyph-name="Igrave" unicode="&#xcc;" horiz-adv-x="228" 
d="M115 880l-125 91c-11 8 -14 16 -14 23c0 11 8 21 22 21h46c21 0 29 -3 42 -20l58 -78c9 -12 12 -17 12 -23c0 -12 -8 -22 -21 -22c-6 0 -13 3 -20 8zM157 800v-775c0 -14 -11 -25 -25 -25h-35c-14 0 -26 11 -26 25v775c0 14 12 25 26 25h35c14 0 25 -11 25 -25z" />
    <glyph glyph-name="Iacute" unicode="&#xcd;" horiz-adv-x="228" 
d="M157 800v-775c0 -14 -11 -25 -25 -25h-35c-14 0 -26 11 -26 25v775c0 14 12 25 26 25h35c14 0 25 -11 25 -25zM237 971l-125 -91c-7 -5 -14 -8 -20 -8c-13 0 -21 10 -21 22c0 6 3 11 12 23l58 78c13 17 21 20 42 20h46c14 0 22 -10 22 -21c0 -7 -3 -15 -14 -23z" />
    <glyph glyph-name="Icircumflex" unicode="&#xce;" horiz-adv-x="228" 
d="M182 884l-46 35c-11 8 -16 10 -22 10s-11 -2 -21 -10l-47 -35c-5 -4 -11 -8 -17 -8c-14 0 -23 10 -23 22c0 6 3 12 13 23l72 88c6 7 13 12 23 12s17 -5 23 -12l72 -88c10 -11 13 -17 13 -23c0 -12 -9 -22 -23 -22c-6 0 -12 4 -17 8zM157 800v-775c0 -14 -11 -25 -25 -25
h-35c-14 0 -26 11 -26 25v775c0 14 12 25 26 25h35c14 0 25 -11 25 -25z" />
    <glyph glyph-name="Idieresis" unicode="&#xcf;" horiz-adv-x="228" 
d="M71 967v-39c0 -15 -8 -22 -23 -22h-39c-15 0 -22 7 -22 22v39c0 15 7 22 22 22h39c15 0 23 -7 23 -22zM241 967v-39c0 -15 -8 -22 -23 -22h-39c-15 0 -22 7 -22 22v39c0 15 7 22 22 22h39c15 0 23 -7 23 -22zM157 800v-775c0 -14 -11 -25 -25 -25h-35
c-14 0 -26 11 -26 25v775c0 14 12 25 26 25h35c14 0 25 -11 25 -25z" />
    <glyph glyph-name="Ograve" unicode="&#xd2;" 
d="M234 71c24 0 45 8 61 25c19 19 25 49 25 90v453c0 41 -6 71 -25 90c-16 17 -37 25 -61 25s-45 -8 -61 -25c-19 -19 -25 -49 -25 -90v-453c0 -41 6 -71 25 -90c16 -17 37 -25 61 -25zM234 -7c-55 0 -99 21 -129 54c-26 30 -43 69 -43 132v467c0 63 17 102 43 132
c30 33 74 54 129 54s99 -21 129 -54c26 -30 43 -69 43 -132v-467c0 -63 -17 -102 -43 -132c-30 -33 -74 -54 -129 -54zM273 880l-125 91c-11 8 -14 16 -14 23c0 11 8 21 22 21h46c21 0 29 -3 42 -20l58 -78c9 -12 12 -17 12 -23c0 -12 -8 -22 -21 -22c-6 0 -13 3 -20 8z" />
    <glyph glyph-name="Oacute" unicode="&#xd3;" 
d="M234 71c24 0 45 8 61 25c19 19 25 49 25 90v453c0 41 -6 71 -25 90c-16 17 -37 25 -61 25s-45 -8 -61 -25c-19 -19 -25 -49 -25 -90v-453c0 -41 6 -71 25 -90c16 -17 37 -25 61 -25zM234 -7c-55 0 -99 21 -129 54c-26 30 -43 69 -43 132v467c0 63 17 102 43 132
c30 33 74 54 129 54s99 -21 129 -54c26 -30 43 -69 43 -132v-467c0 -63 -17 -102 -43 -132c-30 -33 -74 -54 -129 -54zM320 971l-125 -91c-7 -5 -14 -8 -20 -8c-13 0 -21 10 -21 22c0 6 3 11 12 23l58 78c13 17 21 20 42 20h46c14 0 22 -10 22 -21c0 -7 -3 -15 -14 -23z" />
    <glyph glyph-name="Ocircumflex" unicode="&#xd4;" 
d="M234 71c24 0 45 8 61 25c19 19 25 49 25 90v453c0 41 -6 71 -25 90c-16 17 -37 25 -61 25s-45 -8 -61 -25c-19 -19 -25 -49 -25 -90v-453c0 -41 6 -71 25 -90c16 -17 37 -25 61 -25zM234 -7c-55 0 -99 21 -129 54c-26 30 -43 69 -43 132v467c0 63 17 102 43 132
c30 33 74 54 129 54s99 -21 129 -54c26 -30 43 -69 43 -132v-467c0 -63 -17 -102 -43 -132c-30 -33 -74 -54 -129 -54zM296 884l-46 35c-11 8 -16 10 -22 10s-11 -2 -21 -10l-47 -35c-5 -4 -11 -8 -17 -8c-14 0 -23 10 -23 22c0 6 3 12 13 23l72 88c6 7 13 12 23 12
s17 -5 23 -12l72 -88c10 -11 13 -17 13 -23c0 -12 -9 -22 -23 -22c-6 0 -12 4 -17 8z" />
    <glyph glyph-name="Otilde" unicode="&#xd5;" 
d="M234 71c24 0 45 8 61 25c19 19 25 49 25 90v453c0 41 -6 71 -25 90c-16 17 -37 25 -61 25s-45 -8 -61 -25c-19 -19 -25 -49 -25 -90v-453c0 -41 6 -71 25 -90c16 -17 37 -25 61 -25zM234 -7c-55 0 -99 21 -129 54c-26 30 -43 69 -43 132v467c0 63 17 102 43 132
c30 33 74 54 129 54s99 -21 129 -54c26 -30 43 -69 43 -132v-467c0 -63 -17 -102 -43 -132c-30 -33 -74 -54 -129 -54zM220 915l-10 9c-10 9 -15 13 -24 13c-10 0 -18 -7 -21 -18l-2 -8c-3 -10 -12 -18 -24 -18s-23 10 -23 25c0 39 41 77 75 77c23 0 41 -6 58 -21l10 -9
c10 -9 15 -13 24 -13c10 0 18 7 21 18l2 8c3 10 11 18 23 18s23 -10 23 -24c0 -40 -38 -78 -72 -78c-23 0 -43 6 -60 21z" />
    <glyph glyph-name="Ugrave" unicode="&#xd9;" 
d="M320 186v614c0 14 12 25 26 25h35c14 0 25 -11 25 -25v-621c0 -63 -16 -102 -43 -132c-29 -33 -74 -54 -129 -54s-99 21 -129 54c-26 30 -43 69 -43 132v621c0 14 12 25 26 25h35c14 0 25 -11 25 -25v-614c0 -41 6 -71 25 -90c16 -17 37 -25 61 -25c23 0 46 8 62 25
c18 19 24 49 24 90zM273 880l-125 91c-11 8 -14 16 -14 23c0 11 8 21 22 21h46c21 0 29 -3 42 -20l58 -78c9 -12 12 -17 12 -23c0 -12 -8 -22 -21 -22c-6 0 -13 3 -20 8z" />
    <glyph glyph-name="Uacute" unicode="&#xda;" 
d="M320 186v614c0 14 12 25 26 25h35c14 0 25 -11 25 -25v-621c0 -63 -16 -102 -43 -132c-29 -33 -74 -54 -129 -54s-99 21 -129 54c-26 30 -43 69 -43 132v621c0 14 12 25 26 25h35c14 0 25 -11 25 -25v-614c0 -41 6 -71 25 -90c16 -17 37 -25 61 -25c23 0 46 8 62 25
c18 19 24 49 24 90zM310 971l-125 -91c-7 -5 -14 -8 -20 -8c-13 0 -21 10 -21 22c0 6 3 11 12 23l58 78c13 17 21 20 42 20h46c14 0 22 -10 22 -21c0 -7 -3 -15 -14 -23z" />
    <glyph glyph-name="Ucircumflex" unicode="&#xdb;" 
d="M320 186v614c0 14 12 25 26 25h35c14 0 25 -11 25 -25v-621c0 -63 -16 -102 -43 -132c-29 -33 -74 -54 -129 -54s-99 21 -129 54c-26 30 -43 69 -43 132v621c0 14 12 25 26 25h35c14 0 25 -11 25 -25v-614c0 -41 6 -71 25 -90c16 -17 37 -25 61 -25c23 0 46 8 62 25
c18 19 24 49 24 90zM302 884l-46 35c-11 8 -16 10 -22 10s-11 -2 -21 -10l-47 -35c-5 -4 -11 -8 -17 -8c-14 0 -23 10 -23 22c0 6 3 12 13 23l72 88c6 7 13 12 23 12s17 -5 23 -12l72 -88c10 -11 13 -17 13 -23c0 -12 -9 -22 -23 -22c-6 0 -12 4 -17 8z" />
    <glyph glyph-name="Yacute" unicode="&#xdd;" 
d="M192 25v284c0 9 -5 17 -14 22l-12 5c-68 30 -104 85 -104 176v288c0 14 12 25 26 25h35c14 0 25 -11 25 -25v-282c0 -41 6 -71 25 -90c16 -17 37 -25 61 -25c23 0 46 8 62 25c18 19 24 49 24 90v282c0 14 12 25 26 25h35c14 0 25 -11 25 -25v-288
c0 -98 -51 -158 -102 -176l-11 -4c-8 -4 -15 -10 -15 -21v-286c0 -14 -12 -25 -26 -25h-35c-14 0 -25 11 -25 25zM310 971l-125 -91c-7 -5 -14 -8 -20 -8c-13 0 -21 10 -21 22c0 6 3 11 12 23l58 78c13 17 21 20 42 20h46c14 0 22 -10 22 -21c0 -7 -3 -15 -14 -23z" />
    <glyph glyph-name="Thorn" unicode="&#xde;" 
d="M170 257h75c23 0 45 8 61 25c18 19 24 49 24 90v101c0 41 -5 71 -23 90c-16 17 -39 26 -62 26h-72c-17 0 -25 -7 -25 -22v-288c0 -15 7 -22 22 -22zM148 153v-128c0 -14 -11 -25 -25 -25h-35c-14 0 -26 11 -26 25v775c0 14 12 25 26 25h35c14 0 25 -11 25 -25v-107
c0 -13 9 -23 22 -23h75c55 0 99 -21 128 -54c27 -30 43 -69 43 -132v-122c0 -63 -17 -102 -44 -132c-29 -33 -73 -54 -128 -54h-74c-13 0 -22 -10 -22 -23z" />
    <glyph glyph-name="ydieresis" unicode="&#xff;" horiz-adv-x="458" 
d="M61 241v369c0 14 11 25 25 25h34c14 0 25 -11 25 -25v-364c0 -41 6 -71 24 -90c16 -17 37 -25 60 -25s44 8 60 25c18 19 24 49 24 90v364c0 14 11 25 25 25h34c14 0 25 -11 25 -25v-593c0 -49 -13 -101 -48 -138c-32 -33 -75 -50 -120 -50s-88 17 -120 50
c-27 28 -46 68 -46 106v3c0 14 11 25 25 25h31c16 0 25 -9 28 -26l1 -5c4 -21 8 -38 21 -51c16 -16 37 -24 60 -24s44 8 60 24c18 19 24 46 24 85v30c0 13 -8 23 -21 23c-8 0 -16 -5 -25 -7l-11 -3c-13 -4 -31 -6 -45 -6c-31 0 -72 14 -103 46c-35 37 -47 85 -47 142z
M92 745v32c0 14 11 25 25 25h32c14 0 25 -11 25 -25v-32c0 -14 -11 -25 -25 -25h-32c-14 0 -25 11 -25 25zM283 745v32c0 14 11 25 25 25h32c14 0 25 -11 25 -25v-32c0 -14 -11 -25 -25 -25h-32c-14 0 -25 11 -25 25z" />
    <glyph glyph-name="asciitilde" unicode="~" horiz-adv-x="549" 
d="M408 418c0 15 7 22 22 22h40c15 0 22 -7 22 -22v-12c0 -114 -56 -177 -124 -177c-121 0 -131 134 -186 134c-29 0 -42 -33 -42 -110c0 -15 -7 -22 -22 -22h-40c-15 0 -22 7 -22 22v12c0 114 56 177 124 177c121 0 131 -134 186 -134c29 0 42 33 42 110z" />
    <glyph glyph-name="zero.tab" 
d="M234 71c24 0 45 8 61 25c19 19 25 49 25 90v453c0 41 -6 71 -25 90c-16 17 -37 25 -61 25s-45 -8 -61 -25c-19 -19 -25 -49 -25 -90v-453c0 -41 6 -71 25 -90c16 -17 37 -25 61 -25zM234 -7c-55 0 -99 21 -129 54c-26 30 -43 69 -43 132v467c0 63 17 102 43 132
c30 33 74 54 129 54s99 -21 129 -54c26 -30 43 -69 43 -132v-467c0 -63 -17 -102 -43 -132c-30 -33 -74 -54 -129 -54z" />
    <glyph glyph-name="one.tab" 
d="M191 106v551c0 13 -9 19 -23 19h-86c-14 0 -26 11 -26 25v26c0 14 12 25 26 25h78c17 0 23 9 26 21l8 32c4 16 13 25 32 25h25c14 0 26 -11 26 -25v-699c0 -13 9 -24 22 -24h88c14 0 25 -11 25 -25v-32c0 -14 -11 -25 -25 -25h-305c-14 0 -26 11 -26 25v32
c0 14 12 25 26 25h86c14 0 23 11 23 24z" />
    <glyph glyph-name="two.tab" 
d="M381 0h-292c-14 0 -26 11 -26 25v69c0 101 65 181 129 256l17 20c91 108 111 142 111 216v53c0 41 -6 71 -24 90c-16 17 -38 25 -61 25c-24 0 -45 -8 -61 -25c-19 -19 -24 -49 -24 -90v-46c0 -14 -11 -25 -25 -25h-35c-14 0 -27 11 -27 25v53c0 63 17 102 43 132
c30 33 74 54 129 54s99 -21 128 -54c27 -30 43 -69 43 -132v-49c0 -111 -53 -184 -134 -279l-17 -20c-73 -86 -105 -149 -105 -186v-6c0 -13 4 -24 21 -24h210c14 0 25 -11 25 -25v-32c0 -14 -11 -25 -25 -25z" />
    <glyph glyph-name="three.tab" 
d="M235 376h-36c-14 0 -25 11 -25 25v32c0 14 11 25 25 25h35c23 0 46 8 62 25c18 19 24 49 24 90v63c0 41 -5 71 -23 90c-16 17 -39 28 -63 28s-45 -8 -61 -25c-19 -19 -25 -49 -25 -90v-46c0 -14 -11 -25 -25 -25h-35c-14 0 -26 11 -26 25v53c0 63 17 102 43 132
c30 33 74 54 129 54s100 -21 129 -54c27 -30 43 -69 43 -132v-82c0 -46 -5 -96 -41 -131l-8 -8c-6 -6 -8 -11 -8 -16s2 -10 8 -16l8 -8c36 -35 41 -85 41 -131v-75c0 -63 -17 -102 -44 -132c-29 -33 -73 -54 -128 -54s-99 21 -129 54c-26 30 -43 69 -43 132v61
c0 14 12 25 26 25h35c14 0 25 -11 25 -25v-50c0 -41 6 -71 25 -90c16 -17 37 -26 62 -26c23 0 45 8 61 25c18 19 24 49 24 90v72c0 41 -6 71 -24 90c-16 17 -38 25 -61 25z" />
    <glyph glyph-name="four.tab" 
d="M159 256l78 1c13 0 22 11 22 24v160c0 14 11 25 26 25h34c15 0 26 -11 26 -25v-160c0 -13 9 -24 22 -24h36c14 0 25 -11 25 -25v-33c0 -14 -11 -25 -25 -25h-36c-13 0 -22 -10 -22 -23v-126c0 -14 -11 -25 -26 -25h-34c-15 0 -26 11 -26 25v126c0 13 -9 23 -22 23h-174
c-13 0 -22 11 -22 24v37c0 18 10 56 40 184l91 384c5 20 15 26 35 26h27c14 0 26 -9 26 -25v-2c0 -17 -22 -103 -75 -315l-9 -35c-18 -71 -42 -163 -42 -178c2 -12 10 -18 25 -18z" />
    <glyph glyph-name="five.tab" 
d="M375 800v-32c0 -14 -11 -25 -25 -25h-156c-13 0 -23 -10 -23 -23v-102c0 -63 -1 -93 -1 -105c0 -14 6 -21 21 -21c10 0 23 6 55 6c52 0 97 -21 126 -60c22 -30 34 -62 34 -118v-141c0 -63 -16 -102 -43 -132c-29 -33 -73 -54 -128 -54s-99 21 -129 54
c-26 30 -43 69 -43 132v61c0 14 12 25 26 25h35c14 0 25 -11 25 -25v-54c0 -41 6 -71 25 -90c16 -17 37 -25 61 -25c23 0 45 8 61 25c18 19 24 49 24 90v120c0 41 -6 71 -24 90c-16 17 -38 25 -61 25s-39 -3 -67 -15l-13 -6c-12 -5 -18 -6 -24 -6h-4c-22 0 -41 17 -41 44
v362c0 14 11 25 25 25h239c14 0 25 -11 25 -25z" />
    <glyph glyph-name="six.tab" 
d="M235 378h-65c-13 0 -22 -10 -22 -23v-169c0 -41 6 -71 25 -90c16 -17 37 -25 61 -25c23 0 47 8 63 25c18 19 23 49 23 90v77c0 41 -4 71 -22 90c-16 17 -40 25 -63 25zM320 593v46c0 41 -6 71 -24 90c-16 17 -39 25 -62 25c-24 0 -45 -8 -61 -25c-19 -19 -25 -49 -25 -90
v-160c0 -13 9 -23 22 -23h64c55 0 100 -21 129 -54c27 -30 43 -69 43 -132v-91c0 -63 -16 -102 -43 -132c-29 -33 -74 -54 -129 -54s-99 21 -129 54c-26 30 -43 69 -43 132v467c0 63 17 102 43 132c30 33 74 54 129 54s100 -21 129 -54c27 -30 43 -69 43 -132v-53
c0 -14 -11 -25 -25 -25h-34c-14 0 -27 11 -27 25z" />
    <glyph glyph-name="seven.tab" 
d="M239 57l-6 -31c-4 -20 -15 -26 -35 -26h-27c-14 0 -26 9 -26 25v2c0 17 43 191 96 403l29 118c18 71 42 162 42 177c0 12 -10 18 -25 18h-221c-14 0 -25 11 -25 25v32c0 14 11 25 25 25h314c14 0 25 -11 25 -25v-35c0 -18 -8 -56 -40 -184l-60 -246
c-24 -98 -59 -241 -66 -278z" />
    </font>
</defs>
</svg>
