<?xml version="1.0" standalone="no"?>
<!DOCTYPE svg PUBLIC "-//W3C//DTD SVG 1.1//EN" "http://www.w3.org/Graphics/SVG/1.1/DTD/svg11.dtd" >
<svg xmlns="http://www.w3.org/2000/svg" xmlns:xlink="http://www.w3.org/1999/xlink" version="1.1">
<metadata>
Created by FontForge 20190801 at Tue Dec 22 02:30:33 2020
 By root
Copyright \(c\) 2020 by Nick Shinn. Published by Shinn Type Foundry. All rights reserved.
</metadata>
<defs>
<font id="Aptly-Light" horiz-adv-x="468" >
  <font-face 
    font-family="Aptly Light"
    font-weight="300"
    font-stretch="normal"
    units-per-em="1000"
    panose-1="2 0 0 0 0 0 0 0 0 0"
    ascent="829"
    descent="-171"
    x-height="635"
    cap-height="825"
    bbox="-44 -171 1031 1032"
    underline-thickness="40"
    underline-position="-96"
    stemh="64"
    stemv="69"
    unicode-range="U+0020-FB02"
  />
<missing-glyph horiz-adv-x="510" 
d="M407 -165h-304c-13 0 -22 10 -22 23v1152c0 15 7 22 22 22h304c13 0 21 -10 21 -23v-1152c0 -15 -6 -22 -21 -22zM385 -103v1072c0 13 -10 23 -22 23h-215c-13 0 -23 -9 -23 -22v-1072c0 -13 10 -23 22 -23h215c12 0 23 9 23 22z" />
    <glyph glyph-name="fi" unicode="fi" horiz-adv-x="565" 
d="M120 655v35c0 68 59 135 139 135h32c11 0 20 -10 20 -21v-23c0 -11 -9 -20 -20 -20h-27c-47 0 -77 -35 -77 -72v-34c0 -12 9 -20 21 -20h84c12 0 21 -9 21 -21v-21c0 -12 -9 -21 -21 -21h-84c-12 0 -21 -8 -21 -20v-531c0 -12 -9 -21 -21 -21h-24c-13 0 -22 9 -22 21v531
c0 13 -9 20 -21 20h-49c-12 0 -21 9 -21 21v21c0 12 9 21 21 21h49c12 0 21 7 21 20zM420 21v593c0 12 10 21 22 21h23c13 0 22 -9 22 -21v-593c0 -12 -9 -21 -22 -21h-23c-12 0 -22 9 -22 21zM416 771v33c0 12 10 21 22 21h31c13 0 22 -9 22 -21v-33c0 -12 -9 -21 -22 -21
h-31c-12 0 -22 9 -22 21z" />
    <glyph glyph-name="fl" unicode="fl" horiz-adv-x="565" 
d="M120 655v35c0 68 59 135 139 135h32c11 0 20 -10 20 -21v-23c0 -11 -9 -20 -20 -20h-27c-47 0 -77 -35 -77 -72v-34c0 -12 9 -20 21 -20h84c12 0 21 -9 21 -21v-21c0 -12 -9 -21 -21 -21h-84c-12 0 -21 -8 -21 -20v-531c0 -12 -9 -21 -21 -21h-24c-13 0 -22 9 -22 21v531
c0 13 -9 20 -21 20h-49c-12 0 -21 9 -21 21v21c0 12 9 21 21 21h49c12 0 21 7 21 20zM420 21v783c0 12 10 21 22 21h23c13 0 22 -9 22 -21v-783c0 -12 -9 -21 -22 -21h-23c-12 0 -22 9 -22 21z" />
    <glyph glyph-name=".notdef" horiz-adv-x="510" 
d="M407 -165h-304c-13 0 -22 10 -22 23v1152c0 15 7 22 22 22h304c13 0 21 -10 21 -23v-1152c0 -15 -6 -22 -21 -22zM385 -103v1072c0 13 -10 23 -22 23h-215c-13 0 -23 -9 -23 -22v-1072c0 -13 10 -23 22 -23h215c12 0 23 9 23 22z" />
    <glyph glyph-name="NULL" horiz-adv-x="0" 
 />
    <glyph glyph-name="NULL" horiz-adv-x="0" 
 />
    <glyph glyph-name="space" unicode=" " horiz-adv-x="220" 
 />
    <glyph glyph-name="onequarter" unicode="&#xbc;" horiz-adv-x="936" 
d="M838 174h21c14 0 20 -4 20 -15v-24c0 -17 -3 -22 -20 -22h-19c-14 0 -24 -8 -24 -23v-70c0 -12 -6 -20 -20 -20h-26c-12 0 -20 6 -20 20v71c0 13 -8 23 -21 23h-104c-13 0 -24 8 -24 22v29c0 27 10 66 16 88l76 268c4 14 10 22 20 22h32c7 0 19 -2 19 -14
c0 -2 0 -5 -1 -7l-82 -286c-7 -26 -7 -36 -7 -42c0 -12 8 -20 21 -20h34c16 0 21 6 21 22v100c0 11 7 19 18 19h27c14 0 21 -7 21 -19v-98c0 -13 9 -24 22 -24zM301 25l228 785c4 16 10 20 20 20h28c13 0 17 -6 17 -17c0 -4 -2 -18 -7 -36c-75 -254 -148 -509 -222 -763
c-4 -14 -12 -19 -22 -19h-27c-13 0 -17 5 -17 16c0 5 1 10 2 14zM190 826h28c13 0 20 -6 20 -17s-1 -26 -1 -38v-474c0 -13 -6 -21 -20 -21h-27c-11 0 -19 6 -19 18v393c0 13 -10 23 -22 23h-45c-13 0 -17 8 -17 18v22c0 15 4 19 17 19h27c22 0 28 8 34 23l5 13
c5 11 8 21 20 21z" />
    <glyph glyph-name="onesuperior" unicode="&#xb9;" horiz-adv-x="288" 
d="M163 826h28c13 0 20 -6 20 -17s-1 -26 -1 -38v-474c0 -13 -6 -21 -20 -21h-27c-11 0 -19 6 -19 18v393c0 13 -10 23 -22 23h-45c-13 0 -17 8 -17 18v22c0 15 9 19 22 19h22c22 0 28 8 34 23l5 13c5 11 8 21 20 21z" />
    <glyph glyph-name="threequarters" unicode="&#xbe;" horiz-adv-x="936" 
d="M337 25l227 785c4 16 11 20 21 20h27c14 0 18 -6 18 -17c0 -4 -2 -18 -7 -36c-76 -254 -148 -509 -223 -763c-4 -14 -11 -19 -21 -19h-28c-12 0 -16 5 -16 16c0 5 1 10 2 14zM286 539l5 -4c32 -28 34 -69 34 -110v-12c0 -88 -51 -136 -129 -136c-82 0 -121 69 -121 134
v19c0 13 7 21 19 21h25c13 0 20 -7 20 -19v-17c0 -55 25 -80 60 -80c38 0 61 28 61 74v28c0 61 -25 90 -61 90h-13c-12 0 -18 7 -18 17v22c0 10 6 17 18 17h13c36 0 61 29 61 90v27c0 46 -23 74 -61 74c-35 0 -60 -25 -60 -80v-17c0 -12 -7 -19 -20 -19h-25
c-12 0 -19 8 -19 21v19c0 65 39 134 121 134c78 0 129 -48 129 -136v-11c0 -53 0 -80 -33 -109l-6 -5c-6 -6 -8 -11 -8 -16s2 -10 8 -16zM848 174h22c14 0 19 -4 19 -15c0 -14 0 -19 1 -24c0 -17 -4 -22 -20 -22h-20c-14 0 -23 -8 -23 -23v-70c0 -12 -6 -20 -21 -20h-25
c-12 0 -20 6 -20 20v71c0 13 -9 23 -22 23h-104c-12 0 -23 8 -23 22v29c0 27 10 66 16 88l75 268c4 14 11 22 21 22h31c8 0 20 -2 20 -14c0 -2 0 -5 -1 -7l-83 -286c-7 -26 -7 -36 -7 -42c0 -12 8 -20 21 -20h34c16 0 22 6 22 22v100c0 11 7 19 18 19h26c15 0 22 -7 22 -19
v-98c0 -13 8 -24 21 -24z" />
    <glyph glyph-name="threesuperior" unicode="&#xb3;" horiz-adv-x="400" 
d="M286 539l5 -4c34 -30 34 -57 34 -110v-12c0 -88 -51 -136 -129 -136c-83 0 -121 69 -121 134v19c0 13 7 21 19 21h25c13 0 20 -7 20 -19v-17c0 -55 24 -80 60 -80c38 0 61 28 61 74v28c0 61 -25 90 -61 90h-13c-12 0 -18 7 -18 17v22c0 10 6 17 18 17h13
c36 0 61 29 61 90v27c0 46 -23 74 -61 74c-36 0 -60 -25 -60 -80v-17c0 -12 -7 -19 -20 -19h-25c-12 0 -19 8 -19 21v19c0 65 38 134 121 134c78 0 129 -48 129 -136v-11c0 -64 -4 -84 -33 -109l-6 -5c-6 -6 -8 -11 -8 -16s2 -10 8 -16z" />
    <glyph glyph-name="twosuperior" unicode="&#xb2;" horiz-adv-x="397" 
d="M133 484l83 86c21 23 43 57 43 89v41c0 46 -24 74 -62 74c-35 0 -60 -25 -60 -80v-17c0 -12 -7 -19 -20 -19h-25c-12 0 -19 8 -19 21v19c0 65 39 134 121 134c78 0 129 -48 129 -136v-35c0 -35 -14 -77 -50 -114l-83 -86c-45 -48 -53 -69 -53 -93v-10c0 -11 7 -19 22 -19
h146c5 0 18 -5 18 -18v-20c0 -12 -7 -20 -20 -20h-202c-13 0 -28 12 -28 25v45c0 52 20 92 60 133z" />
    <glyph glyph-name="brokenbar" unicode="&#xa6;" horiz-adv-x="500" 
d="M216 511v343c0 12 10 21 22 21h24c12 0 22 -9 22 -21v-343c0 -12 -10 -21 -22 -21h-24c-12 0 -22 9 -22 21zM216 -29v343c0 12 10 21 22 21h24c12 0 22 -9 22 -21v-343c0 -12 -10 -21 -22 -21h-24c-12 0 -22 9 -22 21z" />
    <glyph glyph-name="minus" unicode="&#x2212;" horiz-adv-x="549" 
d="M448 296h-348c-13 0 -22 9 -22 21v23c0 11 9 20 22 20h348c13 0 22 -9 22 -20v-23c0 -12 -9 -21 -22 -21z" />
    <glyph glyph-name="multiply" unicode="&#xd7;" horiz-adv-x="549" 
d="M223 329c0 5 -2 11 -8 17l-102 100c-6 5 -8 11 -8 18c0 6 2 13 8 19l6 5c5 5 11 8 18 8c6 0 13 -1 20 -8l102 -100c5 -5 10 -8 15 -8s10 3 15 8l102 100c7 7 14 8 20 8c7 0 13 -3 18 -8l6 -5c6 -6 8 -13 8 -19c0 -7 -2 -13 -8 -18l-102 -100c-6 -6 -8 -12 -8 -17
s2 -11 8 -17l102 -100c6 -5 8 -11 8 -18c0 -6 -2 -13 -8 -19l-6 -5c-5 -5 -11 -8 -18 -8c-6 0 -13 1 -20 8l-102 100c-5 5 -10 8 -15 8s-10 -3 -15 -8l-102 -100c-7 -7 -14 -8 -20 -8c-7 0 -13 3 -18 8l-6 5c-6 6 -8 13 -8 19c0 7 2 13 8 18l102 100c6 6 8 12 8 17z" />
    <glyph glyph-name="exclam" unicode="!" horiz-adv-x="240" 
d="M152 672c0 -154 -1 -310 -1 -464c0 -11 -8 -20 -20 -20h-22c-12 0 -21 9 -21 20c0 154 -1 310 -1 464v132c0 11 9 21 21 21h24c11 0 20 -10 20 -21v-132zM81 21v36c0 12 9 21 21 21h36c12 0 21 -9 21 -21v-36c0 -12 -9 -21 -21 -21h-36c-12 0 -21 9 -21 21z" />
    <glyph glyph-name="quotedbl" unicode="&#x22;" horiz-adv-x="430" 
d="M136 621h-14c-13 0 -22 9 -23 22l-5 106v51c0 14 12 25 26 25h20c15 0 26 -11 26 -25v-51l-5 -106c-1 -13 -11 -22 -25 -22zM306 621h-14c-13 0 -22 9 -23 22l-5 106v51c0 14 12 25 26 25h20c15 0 26 -11 26 -25v-51l-5 -106c-1 -13 -11 -22 -25 -22z" />
    <glyph glyph-name="numbersign" unicode="#" horiz-adv-x="549" 
d="M228 476l-16 -110c-1 -9 -1 -10 -1 -12c0 -13 5 -19 22 -19h59c17 0 27 4 29 21l16 110c1 9 1 10 1 12c0 13 -5 19 -22 19h-59c-17 0 -27 -4 -29 -21zM280 64l25 185c0 3 2 10 2 12c0 12 -7 18 -24 18h-60c-14 0 -25 -5 -27 -22l-31 -234c-1 -9 -4 -14 -7 -17
c-4 -5 -11 -7 -19 -7h-13c-7 0 -12 2 -16 5s-6 9 -6 16c0 6 1 17 5 44l25 184c1 9 1 10 1 12c0 13 -5 19 -22 19h-49c-11 0 -23 8 -23 22v12c0 12 9 22 23 22h59c14 0 24 5 26 22l17 109c1 9 1 10 1 12c0 13 -5 19 -23 19h-50c-11 0 -22 8 -22 22v12c0 12 9 22 22 22h61
c14 0 24 5 26 22l33 228c0 6 3 11 6 14c4 5 10 7 18 7h12c8 0 13 -2 17 -5s6 -9 6 -16c0 -6 -1 -16 -5 -43l-25 -177c0 -3 -1 -10 -1 -12c0 -12 6 -18 24 -18h60c14 0 24 5 26 22l32 226c1 9 4 14 7 17c4 5 10 7 19 7h12c7 0 12 -2 16 -5s6 -9 6 -16c0 -6 -1 -17 -5 -44
l-24 -176c-1 -9 -1 -10 -1 -12c0 -13 5 -19 22 -19h49c11 0 22 -8 22 -22v-12c0 -12 -9 -22 -22 -22h-59c-14 0 -25 -5 -27 -22l-16 -109c-1 -9 -1 -10 -1 -12c0 -13 5 -19 22 -19h50c12 0 23 -8 23 -22v-12c0 -12 -9 -22 -23 -22h-60c-14 0 -24 -5 -26 -22l-33 -236
c0 -6 -3 -11 -6 -14c-4 -5 -10 -7 -18 -7h-14c-7 0 -12 2 -16 5s-6 9 -6 16c0 6 1 16 5 43z" />
    <glyph glyph-name="dollar" unicode="$" 
d="M403 214c0 -99 -46 -162 -115 -182c-13 -4 -20 -10 -20 -20v-58c0 -11 -11 -20 -22 -20h-24c-12 0 -22 9 -22 20v58c0 10 -7 17 -18 20c-72 18 -117 78 -117 181v21c0 11 12 20 24 20h24c12 0 21 -9 21 -20v-14c0 -90 35 -134 101 -134c60 0 100 36 100 134v10
c0 74 -26 92 -78 120l-79 42c-35 19 -64 35 -83 64s-30 63 -30 119v33c0 102 44 164 114 184c13 4 19 10 19 20v48c0 11 11 20 23 20h24c11 0 21 -9 21 -20v-48c0 -10 8 -17 19 -20c71 -18 116 -78 116 -181v-23c0 -11 -11 -20 -23 -20h-25c-11 0 -20 9 -20 20v16
c0 90 -34 134 -100 134c-60 0 -99 -36 -99 -134v-37c0 -74 21 -87 73 -114l80 -41c33 -17 67 -36 88 -65c20 -28 28 -63 28 -119v-14z" />
    <glyph glyph-name="percent" unicode="%" horiz-adv-x="778" 
d="M205 39l311 771c2 7 6 12 9 15c4 5 10 7 18 7h16c7 0 12 -2 16 -5s6 -9 6 -16c0 -3 -3 -9 -5 -18l-311 -771c-2 -7 -6 -12 -9 -15c-4 -5 -10 -7 -19 -7h-15c-7 0 -12 2 -16 5s-6 9 -6 16c0 3 3 9 5 18zM63 614v80c0 89 49 139 126 139c76 0 123 -51 123 -139v-80
c0 -93 -53 -138 -123 -138c-76 0 -126 47 -126 138zM251 616v75c0 63 -23 86 -62 86c-41 0 -63 -26 -63 -86v-75c0 -58 22 -85 63 -85c39 0 62 24 62 85zM467 131v80c0 89 48 139 125 139c76 0 123 -51 123 -139v-80c0 -93 -53 -138 -123 -138c-75 0 -125 47 -125 138z
M654 133v75c0 63 -23 86 -62 86c-41 0 -63 -26 -63 -86v-75c0 -58 22 -85 63 -85c39 0 62 24 62 85z" />
    <glyph glyph-name="ampersand" unicode="&#x26;" horiz-adv-x="515" 
d="M308 386h-77c-59 0 -97 -38 -97 -127v-70c0 -87 35 -125 97 -125h80c17 0 23 7 23 23v275c0 15 -10 24 -26 24zM402 367l1 -346c0 -11 -10 -21 -21 -21h-147c-98 0 -170 57 -170 187v78c0 36 4 91 42 127l8 8c7 6 9 11 9 16s-2 10 -9 16l-8 8c-37 36 -42 90 -42 121v76
c0 130 68 188 169 188h57c12 0 21 -8 21 -20v-23c0 -12 -9 -21 -21 -21h-61c-63 0 -96 -38 -96 -127v-58c0 -87 33 -126 99 -126h81c15 0 20 7 20 23v78c0 12 9 21 21 21h26c12 0 21 -9 21 -21v-81c0 -12 8 -20 20 -20h23c12 0 21 -9 21 -21v-21c0 -12 -9 -21 -21 -21h-23
c-12 0 -20 -8 -20 -20z" />
    <glyph glyph-name="quotesingle" unicode="'" horiz-adv-x="222" 
d="M117 621h-14c-13 0 -22 9 -23 22l-5 106v51c0 14 12 25 26 25h20c15 0 26 -11 26 -25v-51l-5 -106c-1 -13 -11 -22 -25 -22z" />
    <glyph glyph-name="parenleft" unicode="(" horiz-adv-x="316" 
d="M217 -102l13 -1c12 0 21 -9 21 -20v-20c0 -12 -9 -22 -20 -22h-4c-53 0 -97 19 -125 52c-24 30 -39 62 -39 147v692c0 85 15 117 39 147c28 33 72 52 125 52h4c12 0 21 -9 21 -20v-20c0 -12 -9 -22 -21 -22l-13 -1c-32 -2 -57 -19 -72 -40c-11 -17 -15 -43 -15 -96v-694
c0 -51 3 -77 14 -94c15 -21 43 -38 72 -40z" />
    <glyph glyph-name="parenright" unicode=")" horiz-adv-x="316" 
d="M85 -103l13 1c29 2 57 19 72 40c11 17 14 43 14 94v694c0 53 -4 79 -15 96c-15 21 -40 38 -72 40l-13 1c-12 0 -21 10 -21 22v20c0 11 9 20 21 20h4c53 0 97 -19 125 -52c24 -30 39 -62 39 -147v-692c0 -85 -15 -117 -39 -147c-28 -33 -72 -52 -125 -52h-4
c-11 0 -20 10 -20 22v20c0 11 9 20 21 20z" />
    <glyph glyph-name="asterisk" unicode="*" horiz-adv-x="457" 
d="M202 742v68c0 15 8 22 23 22h8c15 0 22 -7 22 -22v-68c0 -15 -7 -22 -22 -22h-8c-15 0 -23 7 -23 22zM202 534v68c0 15 8 22 23 22h8c15 0 22 -7 22 -22v-68c0 -15 -7 -22 -22 -22h-8c-15 0 -23 7 -23 22zM126 757l60 -33c13 -8 15 -17 8 -30l-2 -4
c-8 -13 -17 -15 -30 -8l-60 33c-13 8 -16 17 -8 30l2 4c8 13 17 15 30 8zM186 620l-60 -33c-13 -7 -22 -5 -30 8l-2 4c-8 13 -5 22 8 30l60 33c13 7 22 5 30 -8l2 -4c7 -13 5 -22 -8 -30zM272 724l60 33c13 7 22 5 30 -8l2 -4c8 -13 5 -22 -8 -30l-60 -33
c-13 -7 -22 -5 -30 8l-2 4c-7 13 -5 22 8 30zM332 587l-60 33c-13 8 -15 17 -8 30l2 4c8 13 17 15 30 8l60 -33c13 -8 16 -17 8 -30l-2 -4c-8 -13 -17 -15 -30 -8z" />
    <glyph glyph-name="plus" unicode="+" horiz-adv-x="549" 
d="M448 296h-118c-12 0 -22 -7 -22 -20v-125c0 -12 -10 -21 -22 -21h-24c-12 0 -22 9 -22 21v125c0 12 -8 20 -20 20h-120c-13 0 -22 9 -22 21v22c0 12 9 21 22 21h119c12 0 21 7 21 20v125c0 12 10 21 22 21h24c12 0 22 -9 22 -21v-125c0 -12 8 -20 20 -20h120
c13 0 22 -9 22 -21v-22c0 -12 -9 -21 -22 -21z" />
    <glyph glyph-name="comma" unicode="," horiz-adv-x="228" 
d="M96 -120l-11 -8c-6 -4 -12 -6 -16 -6c-5 0 -10 3 -15 10l-3 4c-4 5 -6 10 -6 14c0 6 4 12 10 17l16 12c29 21 32 43 32 63c0 12 -6 14 -12 16l-5 2c-6 2 -12 5 -12 18v36c0 8 8 20 20 20h38c14 0 23 -9 23 -22v-56c0 -54 -22 -93 -59 -120z" />
    <glyph glyph-name="hyphen" unicode="-" horiz-adv-x="326" 
d="M234 294h-143c-12 0 -21 9 -21 21v28c0 11 9 20 21 20h143c11 0 21 -9 21 -20v-28c0 -12 -10 -21 -21 -21z" />
    <glyph glyph-name="period" unicode="." horiz-adv-x="228" 
d="M74 21v36c0 12 10 21 22 21h35c13 0 22 -9 22 -21v-36c0 -12 -9 -21 -22 -21h-35c-12 0 -22 9 -22 21z" />
    <glyph glyph-name="slash" unicode="/" horiz-adv-x="348" 
d="M47 -11l200 854c2 7 5 12 8 15c4 5 10 7 18 7h7c7 0 12 -2 16 -5s7 -9 7 -16c0 -3 -1 -9 -4 -18l-200 -854c-3 -7 -5 -13 -8 -16c-4 -5 -9 -6 -17 -6h-7c-6 0 -11 1 -15 4c-5 3 -8 9 -8 17c0 3 0 9 3 18z" />
    <glyph glyph-name="zero" unicode="0" 
d="M65 175v474c0 120 67 183 170 183s168 -64 168 -183v-474c0 -125 -72 -182 -168 -182c-102 0 -170 60 -170 182zM334 191v443c0 93 -36 134 -99 134c-66 0 -101 -45 -101 -134v-443c0 -89 35 -134 101 -134c63 0 99 41 99 134z" />
    <glyph glyph-name="one" unicode="1" horiz-adv-x="320" 
d="M168 831h12c13 0 22 -9 22 -20v-790c0 -12 -9 -21 -22 -21h-24c-12 0 -22 10 -22 21v652c0 12 -10 21 -22 21h-47c-12 0 -22 9 -22 20v21c0 12 10 21 22 21h38c18 0 24 9 28 21l10 30c5 16 8 24 27 24z" />
    <glyph glyph-name="two" unicode="2" horiz-adv-x="462" 
d="M179 324l68 76c78 86 87 112 87 183v51c0 98 -39 134 -99 134c-66 0 -101 -44 -101 -134v-46c0 -11 -9 -20 -21 -20h-24c-12 0 -24 9 -24 20v57c0 126 68 187 170 187c100 0 168 -64 168 -188v-69c0 -70 -23 -124 -89 -197l-68 -76c-104 -116 -114 -135 -114 -209v-9
c0 0 5 -21 21 -21h230c11 0 20 -9 20 -21v-22c0 -12 -9 -20 -20 -20h-296c-11 0 -22 10 -22 21v75c0 74 18 121 114 228z" />
    <glyph glyph-name="three" unicode="3" horiz-adv-x="462" 
d="M64 590v54c0 134 76 188 169 188c94 0 170 -56 170 -188v-75c0 -38 -4 -94 -44 -131l-7 -8c-6 -6 -8 -11 -8 -16s2 -10 8 -16l7 -8c39 -36 44 -91 44 -127v-83c0 -102 -65 -187 -170 -187c-99 0 -169 60 -169 190v50c0 12 11 21 22 21h25c13 0 23 -10 23 -22v-41
c0 -103 43 -134 100 -134c63 0 100 40 100 134v69c0 87 -38 124 -98 124h-37c-13 0 -24 9 -24 21v20c0 12 10 22 24 22h36c62 0 99 39 99 124v64c0 81 -28 133 -101 133c-65 0 -99 -44 -99 -134v-44c0 -13 -9 -22 -22 -22h-26c-12 0 -22 9 -22 22z" />
    <glyph glyph-name="four" unicode="4" horiz-adv-x="478" 
d="M260 785l-130 -481c-5 -20 -12 -40 -12 -52c0 -11 5 -16 20 -16h111c12 0 22 7 22 20v172c0 12 9 21 21 21h25c12 0 21 -9 21 -21v-172c0 -12 8 -20 20 -20h63c12 0 21 -9 21 -21v-21c0 -12 -9 -21 -21 -21h-63c-12 0 -20 -8 -20 -20v-132c0 -12 -9 -21 -21 -21h-25
c-12 0 -21 9 -21 21v132c0 13 -10 20 -22 20h-171c-21 0 -31 11 -31 30v29c0 18 2 31 19 91l128 479c2 7 4 12 7 15c4 5 10 7 19 7h21c7 0 12 -2 16 -5s6 -9 6 -16c0 -3 -1 -9 -3 -18z" />
    <glyph glyph-name="five" unicode="5" horiz-adv-x="460" 
d="M235 427c-49 0 -86 -21 -97 -21h-6c-23 0 -42 12 -42 46v349c0 13 9 24 22 24h234c11 0 20 -10 20 -21v-21c0 -11 -9 -20 -20 -20h-164c-13 0 -24 -10 -24 -23v-118c0 -85 -2 -102 -2 -117c0 -16 3 -24 22 -24c10 0 30 7 64 7c81 0 161 -54 161 -170v-138
c0 -122 -66 -187 -169 -187c-94 0 -169 52 -169 186v54c0 12 12 21 23 21h23c14 0 23 -11 23 -24v-56c0 -85 47 -117 101 -117c63 0 99 41 99 134v119c0 81 -42 117 -99 117z" />
    <glyph glyph-name="six" unicode="6" horiz-adv-x="465" 
d="M134 362v-177c0 -81 36 -128 100 -128s100 47 100 127v75c0 83 -33 127 -100 127h-78c-14 0 -22 -10 -22 -24zM65 179v465c0 127 70 188 169 188c111 0 169 -77 169 -187v-59c0 -11 -13 -20 -24 -20h-21c-12 0 -24 9 -24 20v48c0 92 -36 134 -100 134
c-65 0 -100 -44 -100 -134v-162c0 -13 8 -23 22 -23h79c103 0 168 -60 168 -185v-85c0 -89 -45 -186 -169 -186c-111 0 -169 75 -169 186z" />
    <glyph glyph-name="seven" unicode="7" horiz-adv-x="422" 
d="M322 572l-46 -171c-39 -147 -76 -283 -91 -344c-11 -45 -14 -57 -37 -57h-17c-12 0 -22 6 -21 21v-2c0 39 68 275 121 470l14 49c23 85 53 195 53 206c0 12 -8 19 -24 19h-225c-11 0 -22 9 -22 20v21c0 12 11 21 22 21h300c11 0 20 -10 20 -21v-28
c0 -29 -13 -79 -47 -204z" />
    <glyph glyph-name="eight" unicode="8" 
d="M233 446c59 0 101 35 101 124v73c0 72 -33 125 -98 125c-77 0 -102 -59 -102 -125v-73c0 -93 50 -124 99 -124zM235 57c58 0 99 35 99 129v79c0 91 -45 124 -99 124c-61 0 -101 -40 -101 -129v-79c0 -93 48 -124 101 -124zM233 -7c-110 3 -168 64 -168 187v82
c0 36 6 90 41 127l9 8c7 7 10 12 10 16c0 5 -3 10 -10 16l-9 9c-34 34 -41 84 -41 123v83c0 125 68 188 170 188c110 0 168 -69 168 -188v-86c0 -38 -7 -87 -42 -120c-11 -14 -16 -15 -16 -25c0 -4 2 -9 8 -16l8 -8c38 -37 42 -91 42 -127v-82c0 -125 -67 -187 -170 -187z
" />
    <glyph glyph-name="nine" unicode="9" horiz-adv-x="465" 
d="M334 640c0 81 -36 128 -100 128s-100 -47 -100 -127v-73c0 -83 33 -127 100 -127h78c14 0 22 10 22 24v175zM403 646v-465c0 -127 -70 -188 -169 -188c-111 0 -169 77 -169 187v54c0 11 13 20 24 20h21c12 0 24 -9 24 -20v-43c0 -92 36 -134 100 -134
c65 0 100 44 100 134v164c0 13 -8 23 -22 23h-79c-103 0 -168 60 -168 185v83c0 89 45 186 169 186c111 0 169 -75 169 -186z" />
    <glyph glyph-name="colon" unicode=":" horiz-adv-x="228" 
d="M74 21v36c0 12 10 21 22 21h35c13 0 22 -9 22 -21v-36c0 -12 -9 -21 -22 -21h-35c-12 0 -22 9 -22 21zM74 501v36c0 12 10 21 22 21h35c13 0 22 -9 22 -21v-36c0 -12 -9 -21 -22 -21h-35c-12 0 -22 9 -22 21z" />
    <glyph glyph-name="semicolon" unicode=";" horiz-adv-x="228" 
d="M96 -120l-11 -8c-6 -4 -12 -6 -16 -6c-5 0 -10 3 -15 10l-3 4c-4 5 -6 10 -6 14c0 6 4 12 10 17l16 12c29 21 32 43 32 63c0 12 -6 14 -12 16l-5 2c-6 2 -12 5 -12 18v36c0 8 8 20 20 20h38c14 0 23 -9 23 -22v-56c0 -54 -22 -93 -59 -120zM74 501v36c0 12 10 21 22 21
h35c13 0 22 -9 22 -21v-36c0 -12 -9 -21 -22 -21h-35c-12 0 -22 9 -22 21z" />
    <glyph glyph-name="less" unicode="&#x3c;" horiz-adv-x="549" 
d="M101 315v25c0 31 7 46 74 66l234 70c6 2 12 3 17 3c14 0 22 -7 22 -22v-15c0 -13 -4 -20 -23 -26l-231 -66c-13 -4 -23 -9 -23 -22s9 -18 23 -22l231 -66c19 -6 23 -13 23 -26v-15c0 -15 -8 -22 -22 -22c-5 0 -11 1 -17 3l-235 70c-62 19 -73 35 -73 65z" />
    <glyph glyph-name="equal" unicode="=" horiz-adv-x="549" 
d="M448 212h-348c-13 0 -22 9 -22 21v23c0 11 9 20 22 20h348c13 0 22 -9 22 -20v-23c0 -12 -9 -21 -22 -21zM448 379h-348c-13 0 -22 9 -22 21v23c0 11 9 20 22 20h348c13 0 22 -9 22 -20v-23c0 -12 -9 -21 -22 -21z" />
    <glyph glyph-name="greater" unicode="&#x3e;" horiz-adv-x="549" 
d="M448 340v-25c0 -30 -11 -46 -73 -65l-235 -70c-6 -2 -12 -3 -17 -3c-14 0 -22 7 -22 22v15c0 13 4 20 23 26l231 66c14 4 23 9 23 22s-10 18 -23 22l-231 66c-19 6 -23 13 -23 26v15c0 15 8 22 22 22c5 0 11 -1 17 -3l234 -70c67 -20 74 -35 74 -66z" />
    <glyph glyph-name="question" unicode="?" horiz-adv-x="451" 
d="M401 645v-37c0 -84 -32 -133 -70 -186l-23 -32c-40 -57 -42 -66 -45 -149l-1 -32c0 -11 -7 -21 -22 -21h-18c-16 0 -22 8 -22 21l-1 32c-1 21 -1 52 -1 55c0 67 34 96 61 135l12 16c27 39 62 88 62 167v20c0 98 -40 134 -100 134c-67 0 -100 -44 -100 -134v-46
c0 -11 -9 -20 -21 -20h-24c-12 0 -24 9 -24 20v57c0 126 67 187 169 187c100 0 168 -63 168 -187zM193 21v36c0 12 9 21 21 21h36c12 0 22 -9 22 -21v-36c0 -12 -10 -21 -22 -21h-36c-12 0 -21 9 -21 21z" />
    <glyph glyph-name="at" unicode="@" horiz-adv-x="767" 
d="M447 312l26 177c3 23 3 32 3 40c0 61 -34 90 -91 90c-26 0 -51 -7 -68 -24c-14 -14 -24 -33 -29 -69l-24 -169c-2 -14 -3 -31 -3 -43c0 -67 33 -95 89 -95c54 0 88 28 97 93zM510 666c7 5 16 8 24 8c15 0 28 -9 28 -27c0 -17 -40 -257 -53 -352c-5 -35 -5 -42 -5 -46
c0 -26 22 -40 52 -40c68 0 119 109 119 248v26c0 192 -138 297 -289 297c-185 0 -294 -148 -294 -311v-114c0 -200 122 -310 306 -310c89 0 149 29 203 73l7 5c9 7 12 13 24 13c5 0 11 -2 15 -6l5 -5c6 -5 8 -10 8 -15c0 -10 -6 -16 -19 -27c-35 -30 -74 -52 -118 -67
c-39 -13 -84 -23 -128 -23c-209 0 -359 141 -359 362v114c0 217 164 363 349 363c198 0 346 -147 346 -349v-26c0 -195 -94 -297 -187 -297c-25 0 -41 8 -58 16l-4 2c-9 4 -16 7 -34 7c-28 0 -55 -25 -112 -25c-48 0 -141 30 -141 149c0 12 2 27 4 41l26 185
c11 81 59 145 160 145c23 0 43 -6 58 -11c20 -7 33 -14 41 -14s13 2 22 8z" />
    <glyph glyph-name="A" unicode="A" 
d="M134 634v-192c0 -13 11 -22 21 -22h157c13 0 22 10 22 22v192c0 90 -35 134 -100 134s-100 -44 -100 -134zM403 649v-628c0 -11 -10 -21 -21 -21h-27c-11 0 -21 10 -21 21v313c0 12 -8 22 -22 22h-157c-10 0 -21 -9 -21 -22v-313c0 -11 -9 -21 -22 -21h-25
c-11 0 -22 10 -22 21v628c0 129 76 183 169 183s169 -54 169 -183z" />
    <glyph glyph-name="B" unicode="B" 
d="M89 825h142c101 0 169 -58 169 -188v-76c0 -31 -4 -85 -42 -121l-8 -8c-6 -6 -8 -11 -8 -16s2 -10 8 -16l8 -8c39 -36 42 -91 42 -127v-78c0 -130 -72 -187 -170 -187h-141c-11 0 -22 10 -22 21v783c0 11 11 21 22 21zM235 761h-70c-20 0 -29 -5 -29 -23v-265
c0 -16 5 -23 19 -23h77c65 0 99 39 99 126v58c0 89 -34 127 -96 127zM234 386h-73c-15 0 -25 -9 -25 -24v-275c0 -16 6 -23 22 -23h76c62 0 97 38 97 125v70c0 89 -38 127 -97 127z" />
    <glyph glyph-name="C" unicode="C" horiz-adv-x="462" 
d="M65 175v474c0 122 67 183 169 183c110 0 169 -73 169 -183v-60c0 -11 -10 -21 -21 -21h-27c-11 0 -21 10 -21 21v45c0 92 -36 134 -100 134c-65 0 -100 -44 -100 -134v-443c0 -90 33 -134 100 -134c64 0 100 42 100 134v42c0 12 10 21 21 21h27c11 0 21 -9 21 -21v-58
c0 -119 -65 -182 -169 -182s-169 64 -169 182z" />
    <glyph glyph-name="D" unicode="D" 
d="M155 64h82c64 0 97 41 97 133v432c0 91 -31 132 -96 132h-79c-17 0 -25 -6 -25 -22v-653c0 -15 7 -22 21 -22zM234 0h-147c-11 0 -22 9 -22 20v784c0 11 11 21 22 21h148c104 0 168 -64 168 -183v-460c0 -119 -66 -182 -169 -182z" />
    <glyph glyph-name="E" unicode="E" horiz-adv-x="367" 
d="M154 64h143c11 0 21 -10 21 -21v-22c0 -12 -10 -21 -21 -21h-210c-11 0 -22 10 -22 21v783c0 11 11 21 22 21h210c11 0 21 -11 21 -22v-21c0 -11 -9 -21 -21 -21h-143c-13 0 -20 -7 -20 -20v-271c0 -13 7 -20 20 -20h139c12 0 22 -10 22 -21v-21c0 -12 -10 -22 -22 -22
h-139c-13 0 -20 -7 -20 -20v-282c0 -13 7 -20 20 -20z" />
    <glyph glyph-name="F" unicode="F" horiz-adv-x="357" 
d="M134 335v-315c0 -12 -9 -20 -22 -20h-25c-11 0 -22 9 -22 20v784c0 11 11 21 22 21h212c12 0 21 -10 21 -21v-23c0 -11 -9 -16 -21 -20h-144c-13 0 -21 -10 -21 -23v-293c0 -13 8 -23 21 -23h139c11 0 20 -9 20 -20v-23c0 -12 -9 -21 -20 -21h-139c-13 0 -21 -10 -21 -23
z" />
    <glyph glyph-name="G" unicode="G" 
d="M222 -7c-38 0 -84 15 -113 46c-25 28 -44 67 -44 136v474c0 114 59 183 169 183c100 0 169 -63 169 -183v-60c0 -12 -9 -21 -20 -21h-27c-11 0 -22 9 -22 21v45c0 90 -34 134 -100 134c-64 0 -100 -44 -100 -124v-453c0 -84 28 -134 100 -134c62 0 101 33 101 133v150
c0 10 -7 18 -19 18h-49c-12 0 -22 9 -22 21v23c0 11 9 20 20 20h118c11 0 20 -9 20 -20v-376c0 -15 -11 -28 -30 -28c-11 0 -19 4 -26 11l-2 2c-6 6 -10 8 -17 8c-9 0 -24 -8 -35 -12c-18 -7 -43 -14 -71 -14z" />
    <glyph glyph-name="H" unicode="H" 
d="M311 386h-156c-12 0 -21 -7 -21 -21v-345c0 -11 -9 -20 -22 -20h-25c-11 0 -22 9 -22 20v784c0 11 11 21 22 21h25c13 0 22 -10 22 -21v-332c0 -17 7 -22 21 -22h156c12 0 23 7 23 22v332c0 11 11 21 22 21h27c11 0 20 -10 20 -21v-784c0 -11 -9 -20 -20 -20h-27
c-11 0 -22 9 -22 20v345c0 14 -11 21 -23 21z" />
    <glyph glyph-name="I" unicode="I" horiz-adv-x="228" 
d="M79 21v783c0 12 10 21 22 21h25c13 0 22 -9 22 -21v-783c0 -12 -9 -21 -22 -21h-25c-12 0 -22 9 -22 21z" />
    <glyph glyph-name="J" unicode="J" horiz-adv-x="325" 
d="M80 0h-31c-12 0 -23 8 -23 20v24c0 11 11 20 23 20h28c29 0 53 9 73 29c20 22 26 58 26 106v606c0 11 9 20 23 20h25c13 0 21 -9 21 -20v-618c0 -61 -15 -99 -37 -129c-27 -35 -70 -58 -128 -58z" />
    <glyph glyph-name="K" unicode="K" 
d="M65 20v784c0 11 11 21 22 21h25c13 0 22 -10 22 -21v-333c0 -16 5 -22 21 -22h79c64 0 100 40 100 135v220c0 11 11 21 22 21h26c12 0 21 -10 21 -21v-195c0 -10 1 -18 1 -29c0 -44 -5 -104 -44 -141l-7 -8c-7 -6 -9 -11 -9 -16s2 -10 9 -17l7 -8c36 -34 43 -86 43 -128
v-242c0 -11 -9 -20 -21 -20h-26c-11 0 -22 9 -22 20v230c0 90 -33 136 -100 136h-80c-13 0 -20 -10 -20 -23v-343c0 -11 -9 -20 -22 -20h-25c-11 0 -22 9 -22 20z" />
    <glyph glyph-name="L" unicode="L" horiz-adv-x="353" 
d="M134 805v-718c0 -13 9 -23 21 -23h148c11 0 21 -9 21 -20v-24c0 -11 -10 -20 -21 -20h-215c-11 0 -23 9 -23 20v785c0 11 12 20 23 20h25c12 0 21 -9 21 -20z" />
    <glyph glyph-name="M" unicode="M" horiz-adv-x="708" 
d="M389 650v-630c0 -11 -9 -20 -20 -20h-27c-11 0 -22 9 -22 20v630c0 82 -34 118 -93 118c-61 0 -93 -39 -93 -118v-630c0 -11 -9 -20 -22 -20h-25c-11 0 -22 9 -22 20v777c0 15 11 28 30 28c10 0 18 -4 26 -11l2 -2c6 -6 10 -8 17 -8c8 0 22 9 33 13c17 7 44 15 67 15
c30 0 59 -11 85 -27l8 -5c9 -6 18 -11 26 -11c9 0 17 4 24 9l10 7c26 17 59 27 94 27c76 0 157 -47 157 -183v-629c0 -11 -9 -20 -21 -20h-26c-12 0 -22 9 -22 20v630c0 82 -34 118 -93 118c-61 0 -93 -39 -93 -118z" />
    <glyph glyph-name="N" unicode="N" 
d="M65 20v777c0 15 11 28 30 28c10 0 18 -4 26 -11l2 -2c6 -6 10 -8 17 -8c8 0 23 9 35 13c18 7 42 15 67 15c42 0 87 -14 117 -47c26 -28 44 -69 44 -138v-627c0 -11 -9 -20 -21 -20h-26c-12 0 -22 9 -22 20v611c0 96 -38 137 -99 137c-75 0 -101 -55 -101 -140v-608
c0 -11 -9 -20 -21 -20h-25c-11 0 -23 9 -23 20z" />
    <glyph glyph-name="O" unicode="O" 
d="M234 57c65 0 100 44 100 134v443c0 90 -35 134 -100 134s-100 -44 -100 -134v-443c0 -90 35 -134 100 -134zM234 -7c-102 0 -169 59 -169 182v474c0 129 76 183 169 183s169 -54 169 -183v-474c0 -123 -67 -182 -169 -182z" />
    <glyph glyph-name="P" unicode="P" horiz-adv-x="465" 
d="M238 761h-79c-18 0 -25 -6 -25 -22v-308c0 -16 5 -22 21 -22h82c64 0 97 41 97 133v87c0 91 -31 132 -96 132zM234 345h-79c-13 0 -21 -10 -21 -23v-302c0 -11 -9 -20 -22 -20h-25c-11 0 -22 9 -22 20v784c0 11 11 21 22 21h148c104 0 168 -64 168 -183v-115
c0 -119 -66 -182 -169 -182z" />
    <glyph glyph-name="Q" unicode="Q" 
d="M134 634v-436c0 -88 33 -134 100 -134c64 0 100 42 100 134v436c0 92 -36 134 -100 134c-65 0 -100 -44 -100 -134zM441 0h-206c-102 0 -170 61 -170 182v467c0 121 67 183 169 183c104 0 169 -64 169 -183v-432c0 -62 -17 -89 -41 -121c-4 -4 -5 -6 -5 -11
c0 -12 11 -21 24 -21h60c14 0 26 -11 26 -26v-13c0 -14 -12 -25 -26 -25z" />
    <glyph glyph-name="R" unicode="R" 
d="M236 761h-74c-18 0 -25 -6 -25 -22v-296c0 -16 5 -22 21 -22h74c81 0 100 57 100 125v89c0 86 -33 126 -96 126zM401 642v-106c0 -41 -7 -88 -43 -123l-7 -8c-7 -6 -8 -11 -8 -16s1 -10 8 -16l7 -8c36 -34 43 -83 43 -125v-220c0 -11 -9 -20 -20 -20h-27
c-11 0 -22 9 -22 20v206c0 75 -25 133 -100 133h-75c-13 0 -20 -10 -20 -23v-316c0 -11 -9 -20 -22 -20h-25c-11 0 -22 9 -22 20v784c0 11 11 21 22 21h144c114 0 167 -75 167 -183z" />
    <glyph glyph-name="S" unicode="S" horiz-adv-x="463" 
d="M131 634v-55c0 -62 13 -91 77 -123l76 -37c79 -39 116 -82 116 -174v-70c0 -118 -64 -182 -168 -182s-169 63 -169 182v58c0 12 11 21 22 21h25c12 0 22 -9 22 -21v-42c0 -92 35 -134 100 -134c66 0 100 44 100 134v42c0 70 -29 100 -78 124l-79 39
c-83 41 -112 88 -112 171v82c0 122 66 183 168 183c110 0 169 -73 169 -183v-60c0 -11 -10 -21 -21 -21h-27c-11 0 -21 10 -21 21v45c0 92 -36 134 -100 134c-66 0 -100 -44 -100 -134z" />
    <glyph glyph-name="T" unicode="T" horiz-adv-x="412" 
d="M48 825h316c12 0 21 -9 21 -20v-23c0 -12 -9 -21 -21 -21h-103c-12 0 -21 -8 -21 -21v-720c0 -11 -9 -20 -23 -20h-23c-13 0 -22 9 -22 20v720c0 13 -9 21 -22 21h-102c-11 0 -22 9 -22 21v23c0 11 11 20 22 20z" />
    <glyph glyph-name="U" unicode="U" 
d="M134 804v-613c0 -91 35 -134 100 -134c62 0 100 38 100 134v613c0 11 11 21 22 21h27c11 0 20 -10 20 -21v-625c0 -129 -69 -186 -169 -186c-102 0 -169 59 -169 185v626c0 11 11 21 22 21h25c13 0 22 -10 22 -21z" />
    <glyph glyph-name="V" unicode="V" horiz-adv-x="501" 
d="M443 786l-110 -742c-4 -29 -28 -44 -52 -44h-62c-22 0 -47 10 -52 44l-110 742c-1 7 -2 13 -2 20c0 6 6 19 23 19h24c10 0 19 -7 22 -20l105 -721c2 -15 9 -21 21 -21s19 6 21 21l105 721c3 13 12 20 22 20h24c17 0 23 -13 23 -19c0 -7 -1 -13 -2 -20z" />
    <glyph glyph-name="W" unicode="W" horiz-adv-x="708" 
d="M65 176v629c0 11 11 20 22 20h25c13 0 22 -9 22 -20v-630c0 -79 32 -118 93 -118c59 0 93 36 93 118v630c0 11 11 20 22 20h27c11 0 20 -9 20 -20v-630c0 -79 32 -118 93 -118c59 0 93 36 93 118v630c0 11 10 20 22 20h26c12 0 21 -9 21 -20v-629
c0 -139 -81 -183 -162 -183c-35 0 -69 11 -95 28l-10 7c-7 5 -15 9 -24 9c-8 0 -15 -4 -22 -9l-10 -7c-26 -17 -59 -28 -95 -28c-85 0 -161 49 -161 183z" />
    <glyph glyph-name="X" unicode="X" 
d="M124 417c0 5 -2 10 -9 16l-8 8c-38 36 -42 91 -42 127v236c0 13 6 21 22 21h26c13 0 21 -9 21 -21v-240c0 -72 39 -117 100 -117s100 45 100 117v240c0 12 8 21 20 21h28c16 0 21 -8 21 -21v-236c0 -36 -4 -91 -43 -127l-8 -8c-6 -6 -8 -11 -8 -16s2 -10 8 -16l8 -8
c39 -36 43 -91 43 -127v-245c0 -13 -5 -21 -21 -21h-27c-12 0 -21 9 -21 21v249c0 72 -39 117 -100 117s-100 -45 -100 -117v-249c0 -12 -8 -21 -21 -21h-26c-16 0 -22 8 -22 21v245c0 36 4 91 42 127l8 8c7 6 9 11 9 16z" />
    <glyph glyph-name="Y" unicode="Y" 
d="M201 20v289c0 9 -4 18 -13 22l-15 6c-73 28 -108 87 -108 180v288c0 11 12 20 23 20h25c12 0 21 -9 21 -20v-277c0 -48 6 -85 29 -107c20 -19 43 -28 72 -28c26 0 52 9 70 28c23 22 29 59 29 107v277c0 11 10 20 22 20h26c12 0 21 -9 21 -20v-288
c0 -102 -56 -165 -105 -180l-13 -4c-9 -3 -16 -9 -16 -21v-292c0 -11 -10 -20 -22 -20h-24c-13 0 -22 9 -22 20z" />
    <glyph glyph-name="Z" unicode="Z" horiz-adv-x="406" 
d="M77 131l191 589c1 3 5 18 5 21c0 11 -9 20 -24 20h-169c-12 0 -21 8 -21 20v23c0 12 9 21 21 21h243c14 0 24 -11 24 -23v-24c0 -19 -8 -51 -19 -84l-190 -589c-1 -3 -3 -18 -3 -21c0 -11 7 -20 22 -20h168c13 0 22 -8 22 -20v-23c0 -12 -9 -21 -22 -21h-242
c-14 0 -24 11 -24 23v24c0 19 8 51 18 84z" />
    <glyph glyph-name="bracketleft" unicode="[" horiz-adv-x="316" 
d="M57 -142v1044c0 14 13 23 24 23h157c12 0 21 -9 21 -20v-22c0 -12 -8 -21 -21 -21h-92c-12 0 -20 -7 -20 -20v-924c0 -13 8 -20 20 -20h92c13 0 21 -9 21 -21v-22c0 -11 -9 -20 -21 -20h-157c-11 0 -24 9 -24 23z" />
    <glyph glyph-name="backslash" unicode="\" horiz-adv-x="348" 
d="M100 843l200 -854c3 -9 3 -15 3 -18c0 -8 -3 -14 -8 -17c-4 -3 -9 -4 -15 -4h-7c-8 0 -13 1 -17 6c-3 3 -5 9 -8 16l-200 854c-3 9 -4 15 -4 18c0 7 3 13 7 16s9 5 16 5h7c8 0 14 -2 18 -7c3 -3 6 -8 8 -15z" />
    <glyph glyph-name="bracketright" unicode="]" horiz-adv-x="316" 
d="M259 902v-1044c0 -14 -12 -23 -23 -23h-157c-13 0 -22 9 -22 20v22c0 12 8 21 22 21h92c12 0 20 7 20 20v924c0 13 -8 20 -20 20h-92c-14 0 -22 9 -22 21v22c0 11 9 20 22 20h157c11 0 23 -9 23 -23z" />
    <glyph glyph-name="asciicircum" unicode="^" horiz-adv-x="549" 
d="M262 619h24c31 0 52 -15 63 -47l94 -273c9 -26 17 -44 17 -54c0 -8 -9 -21 -21 -21h-23c-10 0 -20 8 -24 22l-96 288c-4 13 -8 25 -22 25s-18 -12 -22 -25l-96 -288c-4 -14 -14 -22 -24 -22h-23c-12 0 -21 13 -21 21c0 10 8 28 17 54l94 273c10 29 32 47 63 47z" />
    <glyph glyph-name="underscore" unicode="_" horiz-adv-x="549" 
d="M478 -143h-408c-12 0 -21 9 -21 21v23c0 11 9 20 21 20h408c12 0 21 -9 21 -20v-23c0 -12 -9 -21 -21 -21z" />
    <glyph glyph-name="grave" unicode="`" horiz-adv-x="458" 
d="M267 691l-113 95c-6 5 -8 12 -8 18c0 10 9 21 22 21h23c20 0 32 -5 46 -22l59 -74c10 -12 13 -17 13 -25c0 -11 -9 -22 -21 -22c-5 0 -12 1 -21 9z" />
    <glyph glyph-name="a" unicode="a" horiz-adv-x="453" 
d="M126 186v-4c0 -86 39 -125 98 -125c34 0 61 11 77 34c14 19 21 46 21 88v98c0 11 -6 19 -21 19h-74c-34 0 -57 -9 -72 -24c-20 -19 -29 -49 -29 -86zM213 -5c-99 0 -156 78 -156 182v11c0 40 10 83 33 114c26 34 64 58 128 58h83c12 0 21 8 21 21v72
c0 85 -40 125 -98 125c-57 0 -98 -40 -98 -113v-7c0 -12 -10 -21 -22 -21h-25c-12 0 -21 9 -21 21v7c0 108 67 177 166 177c102 0 166 -64 166 -185v-428c0 -15 -10 -28 -30 -28c-10 0 -18 4 -25 11l-2 2c-6 6 -11 8 -18 8c-8 0 -23 -9 -34 -13c-19 -7 -43 -14 -68 -14z" />
    <glyph glyph-name="b" unicode="b" horiz-adv-x="455" 
d="M130 457v-279c0 -42 8 -68 22 -87c17 -23 43 -34 78 -34c58 0 98 39 98 125v266c0 45 -9 75 -24 96c-16 22 -43 34 -70 34c-72 0 -104 -42 -104 -121zM239 -6c-23 0 -48 8 -66 15c-12 4 -27 13 -35 13c-7 0 -11 -2 -17 -8l-2 -2c-8 -7 -16 -11 -26 -11
c-19 0 -30 13 -30 28v775c0 12 10 21 22 21h23c13 0 22 -9 22 -21v-129c0 -9 -1 -24 -1 -28c0 -10 2 -15 5 -19s8 -7 15 -7c6 0 10 1 13 2c17 5 39 19 79 19c44 0 86 -18 113 -51c26 -31 41 -75 41 -136v-279c0 -107 -56 -182 -156 -182z" />
    <glyph glyph-name="c" unicode="c" horiz-adv-x="448" 
d="M230 578c-64 0 -100 -42 -100 -133v-255c0 -98 39 -133 100 -133c72 0 98 56 98 117v3c0 12 10 21 21 21h25c12 0 21 -9 21 -21v-8c0 -84 -41 -176 -165 -176c-99 0 -167 56 -167 185v279c0 125 70 185 167 185c122 0 165 -92 165 -176v-8c0 -12 -9 -21 -21 -21h-26
c-11 0 -20 9 -20 21v3c0 71 -34 117 -98 117z" />
    <glyph glyph-name="d" unicode="d" horiz-adv-x="455" 
d="M325 178v279c0 79 -31 121 -103 121c-27 0 -55 -12 -71 -34c-15 -21 -24 -51 -24 -96v-266c0 -86 41 -125 99 -125c35 0 60 11 77 34c14 19 22 45 22 87zM216 -6c-100 0 -156 75 -156 182v279c0 61 15 105 41 136c27 33 70 51 114 51c40 0 61 -14 78 -19c3 -1 7 -2 13 -2
c7 0 12 3 15 7s5 9 5 19c0 4 -1 19 -1 28v129c0 12 9 21 22 21h23c12 0 22 -9 22 -21v-775c0 -15 -12 -28 -31 -28c-10 0 -18 4 -26 11l-2 2c-6 6 -10 8 -17 8c-8 0 -23 -9 -35 -13c-18 -7 -42 -15 -65 -15z" />
    <glyph glyph-name="e" unicode="e" horiz-adv-x="457" 
d="M130 444v-65c0 -15 7 -20 21 -20h155c13 0 22 7 22 21v66c0 94 -41 132 -99 132c-64 0 -99 -43 -99 -134zM395 178v-5c0 -124 -64 -180 -166 -180c-107 0 -166 73 -166 184v280c0 120 66 185 166 185c101 0 166 -62 166 -186v-138c0 -11 -11 -21 -21 -21h-223
c-13 0 -21 -7 -21 -20v-85c0 -91 35 -135 99 -135c65 0 99 44 99 117v4c0 11 10 20 21 20h25c11 0 21 -9 21 -20z" />
    <glyph glyph-name="f" unicode="f" horiz-adv-x="342" 
d="M120 655v35c0 68 59 135 139 135h32c11 0 20 -10 20 -21v-23c0 -11 -9 -20 -20 -20h-27c-47 0 -77 -35 -77 -72v-34c0 -12 9 -20 21 -20h84c12 0 21 -9 21 -21v-21c0 -12 -9 -21 -21 -21h-84c-12 0 -21 -8 -21 -20v-531c0 -12 -9 -21 -21 -21h-24c-13 0 -22 9 -22 21v531
c0 13 -9 20 -21 20h-49c-12 0 -21 9 -21 21v21c0 12 9 21 21 21h49c12 0 21 7 21 20z" />
    <glyph glyph-name="g" unicode="g" horiz-adv-x="456" 
d="M395 607v-565c0 -75 -8 -106 -23 -134c-27 -52 -78 -79 -144 -79c-87 0 -149 51 -162 143v9c0 12 9 21 20 21h23c13 0 22 -8 24 -21l1 -8c10 -52 52 -80 96 -80c55 0 98 36 98 120v8c0 9 1 24 1 28c0 10 -2 15 -5 19s-8 7 -15 7c-6 0 -10 -1 -13 -2
c-17 -5 -39 -19 -79 -19c-43 0 -85 18 -113 51c-25 31 -41 75 -41 136v219c0 107 57 182 157 182c22 0 46 -8 65 -15c11 -4 26 -13 34 -13s13 2 21 10c7 7 15 11 25 11c20 0 30 -13 30 -28zM328 239v219c0 42 -8 68 -22 87c-16 23 -43 34 -77 34c-58 0 -99 -39 -99 -125
v-206c0 -45 10 -76 25 -97c17 -22 42 -33 69 -33c72 0 104 42 104 121z" />
    <glyph glyph-name="h" unicode="h" horiz-adv-x="458" 
d="M63 21v783c0 12 10 21 22 21h24c13 0 22 -9 22 -21v-126c0 -9 -1 -24 -1 -28c0 -10 2 -15 5 -19s8 -7 15 -7c6 0 10 1 13 2c17 5 37 16 77 16c44 0 87 -18 114 -51c26 -31 41 -75 41 -136v-434c0 -12 -9 -21 -21 -21h-25c-12 0 -21 9 -21 21v427c0 45 -11 76 -26 97
c-16 22 -42 33 -69 33c-64 0 -103 -42 -103 -121v-436c0 -12 -9 -21 -22 -21h-23c-12 0 -22 9 -22 21z" />
    <glyph glyph-name="i" unicode="i" horiz-adv-x="223" 
d="M78 21v593c0 12 10 21 22 21h23c13 0 22 -9 22 -21v-593c0 -12 -9 -21 -22 -21h-23c-12 0 -22 9 -22 21zM74 771v33c0 12 10 21 22 21h31c13 0 22 -9 22 -21v-33c0 -12 -9 -21 -22 -21h-31c-12 0 -22 9 -22 21z" />
    <glyph glyph-name="j" unicode="j" horiz-adv-x="223" 
d="M145 614v-601c0 -59 -7 -102 -32 -133c-24 -31 -66 -45 -110 -45h-24c-12 0 -21 10 -21 21v23c0 11 9 21 21 21h36c24 0 41 9 50 24s13 44 13 68v622c0 12 10 21 22 21h23c13 0 22 -9 22 -21zM74 771v33c0 12 10 21 22 21h31c13 0 22 -9 22 -21v-33c0 -12 -9 -21 -22 -21
h-31c-12 0 -22 9 -22 21z" />
    <glyph glyph-name="k" unicode="k" horiz-adv-x="460" 
d="M63 20v784c0 11 10 21 22 21h24c12 0 21 -10 21 -21v-416c0 -16 6 -22 22 -22h76c64 0 100 46 100 125v123c0 12 9 21 20 21h26c11 0 21 -9 21 -21v-122c0 -43 -5 -97 -42 -134l-7 -8c-7 -6 -9 -11 -9 -16s2 -10 9 -16l7 -8c34 -34 42 -83 42 -124v-166
c0 -11 -9 -20 -20 -20h-27c-11 0 -20 9 -20 20v162c0 73 -33 126 -100 126h-78c-13 0 -20 -10 -20 -23v-265c0 -11 -9 -20 -21 -20h-24c-12 0 -22 9 -22 20z" />
    <glyph glyph-name="l" unicode="l" horiz-adv-x="223" 
d="M78 21v783c0 12 10 21 22 21h23c13 0 22 -9 22 -21v-783c0 -12 -9 -21 -22 -21h-23c-12 0 -22 9 -22 21z" />
    <glyph glyph-name="m" unicode="m" horiz-adv-x="693" 
d="M630 459v-439c0 -11 -9 -20 -20 -20h-27c-11 0 -20 9 -20 20v436c0 43 -10 72 -24 92c-15 20 -39 30 -64 30c-32 0 -57 -11 -74 -32c-14 -19 -21 -46 -21 -90v-436c0 -11 -9 -20 -21 -20h-26c-11 0 -20 9 -20 20v436c0 43 -10 72 -24 92c-15 20 -39 30 -64 30
c-32 0 -57 -11 -74 -32c-14 -19 -21 -46 -21 -90v-435c0 -11 -9 -21 -21 -21h-25c-12 0 -21 10 -21 21v586c0 15 11 28 30 28c10 0 18 -4 26 -11l2 -2c6 -6 10 -8 17 -8c8 0 22 9 33 13c17 7 42 15 65 15c29 0 57 -11 82 -27l7 -5c9 -6 18 -11 26 -11c9 0 15 4 22 9l10 7
c25 17 59 27 93 27c73 0 154 -47 154 -183z" />
    <glyph glyph-name="n" unicode="n" horiz-adv-x="458" 
d="M351 595c26 -28 44 -69 44 -138v-437c0 -11 -9 -20 -20 -20h-27c-11 0 -20 9 -20 20v424c0 48 -8 83 -29 106c-18 19 -44 28 -70 28c-27 0 -52 -8 -72 -27c-21 -23 -27 -59 -27 -107v-424c0 -11 -9 -20 -22 -20h-24c-11 0 -21 9 -21 20v587c0 15 11 28 30 28
c10 0 18 -4 26 -11l2 -2c6 -6 10 -8 17 -8c8 0 23 9 35 13c18 7 42 15 67 15c42 0 80 -14 111 -47z" />
    <glyph glyph-name="o" unicode="o" horiz-adv-x="458" 
d="M229 57c60 0 99 42 99 125v271c0 83 -39 125 -99 125s-99 -42 -99 -125v-271c0 -83 39 -125 99 -125zM229 -7c-102 0 -166 63 -166 185v279c0 122 64 185 166 185s166 -63 166 -185v-279c0 -122 -64 -185 -166 -185z" />
    <glyph glyph-name="p" unicode="p" horiz-adv-x="455" 
d="M130 458v-279c0 -79 32 -121 104 -121c27 0 54 12 70 34c15 21 24 51 24 96v265c0 86 -40 125 -98 125c-35 0 -61 -11 -78 -34c-14 -19 -22 -44 -22 -86zM239 642c100 0 156 -75 156 -182v-279c0 -61 -15 -105 -41 -136c-27 -33 -69 -51 -113 -51c-40 0 -62 14 -79 19
c-3 1 -7 2 -13 2c-7 0 -12 -3 -15 -7s-5 -9 -5 -19c0 -4 1 -19 1 -28v-105c0 -12 -9 -21 -22 -21h-23c-12 0 -22 9 -22 21v751c0 15 11 28 30 28c10 0 18 -4 26 -11l2 -2c6 -6 10 -8 17 -8c8 0 23 9 35 13c18 7 43 15 66 15z" />
    <glyph glyph-name="q" unicode="q" horiz-adv-x="455" 
d="M325 179v278c0 42 -8 68 -22 87c-17 23 -43 34 -78 34c-58 0 -98 -39 -98 -125v-265c0 -45 9 -75 24 -96c16 -22 43 -34 70 -34c72 0 104 42 104 121zM216 642c23 0 48 -8 66 -15c12 -4 27 -13 35 -13c7 0 11 2 17 8l2 2c8 7 16 11 26 11c19 0 30 -13 30 -28v-751
c0 -12 -10 -21 -22 -21h-23c-13 0 -22 9 -22 21v105c0 9 1 24 1 28c0 10 -2 15 -5 19s-8 7 -15 7c-6 0 -10 -1 -13 -2c-17 -5 -39 -19 -79 -19c-44 0 -86 18 -113 51c-26 31 -41 75 -41 136v279c0 107 56 182 156 182z" />
    <glyph glyph-name="r" unicode="r" horiz-adv-x="315" 
d="M252 641h8c14 0 25 -8 25 -23v-22c0 -13 -11 -20 -24 -20h-20c-94 0 -111 -51 -111 -131v-423c0 -12 -10 -22 -24 -22h-19c-13 0 -24 10 -24 22v586c0 15 11 28 30 28c10 0 18 -5 26 -12l2 -2c6 -6 10 -8 17 -8c8 0 23 7 35 11c18 7 53 16 79 16z" />
    <glyph glyph-name="s" unicode="s" horiz-adv-x="451" 
d="M208 355l64 -31c80 -40 116 -79 116 -160v-5c0 -82 -53 -166 -162 -166c-99 0 -163 68 -163 170v14c0 12 10 21 22 21h25c11 0 21 -9 21 -21v-14c0 -46 21 -106 95 -106c71 0 95 66 95 101v3c0 55 -30 78 -78 102l-68 34c-80 40 -112 77 -112 158v21
c0 102 70 166 163 166c106 0 162 -73 162 -170v-14c0 -12 -9 -21 -22 -21h-25c-11 0 -21 9 -21 21v14c0 56 -29 106 -94 106c-58 0 -96 -42 -96 -102v-16c0 -55 30 -82 78 -105z" />
    <glyph glyph-name="t" unicode="t" horiz-adv-x="336" 
d="M110 145v407c0 13 -9 20 -21 20h-39c-12 0 -21 9 -21 21v21c0 12 9 21 21 21h39c12 0 21 7 21 20v78c0 12 9 21 22 21h24c12 0 22 -9 22 -21v-78c0 -12 8 -20 20 -20h88c12 0 21 -9 21 -21v-21c0 -12 -9 -21 -21 -21h-88c-12 0 -20 -8 -20 -20v-416c0 -19 4 -40 13 -52
s26 -20 50 -20h44c11 0 20 -9 20 -20v-23c0 -11 -9 -21 -20 -21h-31c-51 0 -86 12 -109 35c-24 23 -35 57 -35 110z" />
    <glyph glyph-name="u" unicode="u" horiz-adv-x="458" 
d="M107 40c-26 28 -44 69 -44 138v437c0 11 9 20 20 20h27c11 0 20 -9 20 -20v-424c0 -48 8 -83 29 -106c18 -19 44 -28 70 -28c27 0 52 8 72 27c21 23 27 59 27 107v424c0 11 9 20 22 20h24c11 0 21 -9 21 -20v-587c0 -15 -11 -28 -30 -28c-10 0 -18 4 -26 11l-2 2
c-6 6 -10 8 -17 8c-8 0 -23 -9 -35 -13c-18 -7 -42 -15 -67 -15c-42 0 -80 14 -111 47z" />
    <glyph glyph-name="v" unicode="v" horiz-adv-x="480" 
d="M281 0h-82c-17 0 -35 13 -38 32l-103 564c-1 7 -2 13 -2 20c0 6 6 19 23 19h23c10 0 20 -7 22 -20l94 -531c3 -15 10 -21 22 -21s18 6 21 21l95 531c2 13 11 20 22 20h23c16 0 22 -13 22 -19c0 -7 -1 -13 -2 -20l-103 -564c-3 -19 -20 -32 -37 -32z" />
    <glyph glyph-name="w" unicode="w" horiz-adv-x="693" 
d="M63 176v438c0 10 9 21 21 21h25c12 0 21 -10 21 -21v-435c0 -44 7 -71 21 -90c17 -21 42 -32 74 -32c25 0 49 10 64 30c14 20 24 49 24 92v436c0 11 9 20 20 20h26c12 0 21 -9 21 -20v-436c0 -44 7 -71 21 -90c17 -21 42 -32 74 -32c25 0 49 10 64 30c14 20 24 49 24 92
v436c0 11 9 20 20 20h27c11 0 20 -9 20 -20v-439c0 -136 -81 -183 -156 -183c-34 0 -70 10 -94 27l-10 7c-7 5 -15 9 -23 9s-15 -4 -21 -9l-11 -7c-25 -17 -59 -27 -93 -27c-81 0 -159 45 -159 183z" />
    <glyph glyph-name="x" unicode="x" horiz-adv-x="458" 
d="M229 308c-68 0 -99 -53 -99 -126v-162c0 -11 -9 -20 -21 -20h-25c-11 0 -21 9 -21 20v166c0 41 7 90 40 124l7 8c8 6 10 11 10 16s-2 10 -10 16l-7 8c-36 37 -40 91 -40 134v122c0 12 11 21 22 21h24c12 0 21 -9 21 -21v-123c0 -79 34 -125 99 -125c64 0 99 46 99 125
v123c0 12 9 21 20 21h26c11 0 21 -9 21 -21v-122c0 -43 -4 -97 -41 -134l-7 -8c-7 -6 -9 -11 -9 -16s2 -10 9 -16l7 -8c34 -34 41 -83 41 -124v-166c0 -11 -9 -20 -20 -20h-27c-11 0 -20 9 -20 20v162c0 73 -32 126 -99 126z" />
    <glyph glyph-name="y" unicode="y" horiz-adv-x="458" 
d="M328 13v8c0 9 1 24 1 28c0 10 -2 15 -5 19s-8 7 -15 7c-6 0 -10 -1 -13 -2c-17 -5 -39 -19 -79 -19c-43 0 -85 18 -113 51c-25 31 -41 75 -41 136v374c0 11 10 20 21 20h25c12 0 21 -9 21 -20v-367c0 -45 10 -76 25 -97c17 -22 42 -33 69 -33c72 0 104 42 104 121v376
c0 11 9 20 21 20h26c11 0 20 -9 20 -20v-573c0 -75 -8 -106 -23 -134c-27 -52 -78 -79 -144 -79c-87 0 -149 51 -162 143v9c0 12 9 21 20 21h23c13 0 22 -8 24 -21l1 -8c10 -52 52 -80 96 -80c55 0 98 36 98 120z" />
    <glyph glyph-name="z" unicode="z" horiz-adv-x="386" 
d="M84 131l158 400c1 3 4 16 4 19c0 11 -8 22 -24 22h-139c-13 0 -22 8 -22 20v22c0 12 9 21 22 21h224c13 0 22 -9 22 -21v-26c0 -19 -13 -52 -26 -84l-158 -400c-1 -3 -4 -16 -4 -19c0 -11 8 -22 23 -22h140c12 0 21 -8 21 -20v-22c0 -12 -9 -21 -21 -21h-224
c-14 0 -23 9 -23 21v26c0 19 13 52 27 84z" />
    <glyph glyph-name="dagger" unicode="&#x2020;" horiz-adv-x="457" 
d="M432 556v-20c0 -11 -11 -21 -20 -21h-131c-12 0 -21 -5 -21 -18v-603c0 -11 -10 -20 -20 -20h-24c-9 0 -19 10 -19 20v603c0 13 -8 18 -22 18h-131c-9 0 -20 9 -20 21v20c0 10 11 20 20 20h131c14 0 22 6 22 19v209c0 12 10 21 20 21h24c9 0 19 -10 19 -21v-209
c0 -13 9 -19 21 -19h131c9 0 20 -9 20 -20z" />
    <glyph glyph-name="degree" unicode="&#xb0;" horiz-adv-x="344" 
d="M100 702c0 -39 33 -74 72 -74s70 35 70 74s-31 73 -70 73s-72 -34 -72 -73zM40 702c0 71 59 131 132 131c72 0 132 -60 132 -131c0 -72 -60 -131 -132 -131c-73 0 -132 59 -132 131z" />
    <glyph glyph-name="cent" unicode="&#xa2;" 
d="M66 287v251c0 102 44 164 114 184c13 4 19 10 19 20v70c0 11 11 20 23 20h24c11 0 21 -9 21 -20v-70c0 -10 8 -17 19 -20c71 -18 116 -78 116 -181v-13c0 -11 -11 -20 -23 -20h-25c-11 0 -20 9 -20 20v6c0 90 -34 134 -100 134c-60 0 -99 -36 -99 -134v-243
c0 -98 39 -134 99 -134c66 0 100 44 100 134v6c0 11 9 20 20 20h25c12 0 23 -9 23 -20v-13c0 -103 -45 -163 -116 -181c-11 -3 -19 -10 -19 -20v-70c0 -11 -10 -20 -21 -20h-24c-12 0 -23 9 -23 20v70c0 10 -6 16 -19 20c-70 20 -114 82 -114 184z" />
    <glyph glyph-name="sterling" unicode="&#xa3;" horiz-adv-x="509" 
d="M121 424v225c0 122 71 183 163 183c100 0 163 -73 163 -183v-60c0 -11 -10 -21 -21 -21h-26c-11 0 -21 10 -21 21v45c0 92 -41 134 -95 134c-55 0 -95 -44 -95 -134v-211c0 -12 8 -19 19 -19h107c13 0 22 -9 22 -21v-21c0 -12 -9 -21 -22 -21h-107c-11 0 -19 -7 -19 -20
v-95c0 -61 -3 -93 -18 -122c-3 -5 -5 -13 -5 -17c0 -12 9 -23 21 -23h240c11 0 20 -9 20 -20v-24c0 -12 -9 -20 -20 -20h-344c-11 0 -20 9 -20 20v22c0 10 2 16 11 26l14 15c32 33 33 87 33 130v108c0 13 -10 20 -22 20h-27c-13 0 -22 9 -22 21v21c0 12 9 21 22 21h27
c12 0 22 7 22 20z" />
    <glyph glyph-name="section" unicode="&#xa7;" horiz-adv-x="457" 
d="M125 386v-108c0 -46 19 -70 56 -87c21 -11 38 -16 60 -16c49 0 92 38 92 100v108c0 46 -20 70 -56 87c-22 11 -35 16 -61 16c-49 0 -91 -38 -91 -100zM97 -40v8c0 12 9 21 21 21h26c11 0 20 -9 20 -21v-13c0 -17 6 -32 18 -43c11 -11 28 -19 48 -19c27 0 64 18 64 62v52
c0 53 -27 74 -64 90l-62 25c-90 37 -111 79 -111 165v100c0 62 24 97 75 123c10 5 16 12 16 20c0 6 -4 13 -12 20c-32 23 -39 39 -39 85v62c0 39 17 77 48 104c22 19 51 31 85 31c35 0 69 -9 91 -29c30 -26 39 -65 39 -102v-8c0 -12 -9 -21 -21 -21h-26c-11 0 -20 9 -20 21
v13c0 17 -4 32 -15 43c-12 11 -29 19 -48 19c-28 0 -67 -21 -67 -65v-49c0 -53 27 -74 65 -90l61 -25c91 -37 111 -79 111 -165v-100c0 -62 -24 -97 -75 -123c-10 -5 -16 -12 -16 -20c0 -6 4 -13 12 -20c32 -23 40 -39 40 -85v-62c0 -39 -15 -77 -46 -104
c-22 -19 -52 -31 -85 -31c-36 0 -69 9 -91 29c-30 26 -42 65 -42 102z" />
    <glyph glyph-name="bullet" unicode="&#x2022;" horiz-adv-x="549" 
d="M306 308h-64c-11 0 -20 10 -20 21v69c0 12 9 21 20 21h64c11 0 20 -9 20 -21v-69c0 -11 -9 -21 -20 -21z" />
    <glyph glyph-name="paragraph" unicode="&#xb6;" horiz-adv-x="617" 
d="M523 765h-32c-13 0 -22 -9 -22 -22v-843c0 -11 -10 -20 -22 -20h-17c-11 0 -22 9 -22 20v843c0 13 -9 22 -22 22h-33c-14 0 -23 -9 -23 -22v-843c0 -11 -9 -20 -21 -20h-18c-11 0 -21 9 -21 20v480c0 13 -9 23 -22 23h-12c-58 0 -103 19 -133 58c-26 33 -40 81 -40 145
v12c0 63 13 112 39 146c30 41 75 61 134 61h287c11 0 21 -9 21 -20v-19c0 -12 -10 -21 -21 -21z" />
    <glyph glyph-name="germandbls" unicode="&#xdf;" horiz-adv-x="457" 
d="M328 626v40c0 55 -34 102 -99 102c-61 0 -99 -43 -99 -124v-624c0 -11 -9 -20 -21 -20h-24c-12 0 -22 9 -22 20v627c0 120 66 185 166 185c95 0 166 -66 166 -166v-39c0 -39 -9 -81 -44 -111l-8 -7c-7 -6 -8 -12 -8 -17s2 -10 8 -16l8 -8c38 -37 44 -78 44 -123v-157
c0 -116 -67 -188 -175 -188h-11c-12 0 -22 8 -22 21v22c0 12 10 21 21 21h12c76 0 108 43 108 135v129c0 102 -39 133 -97 133h-22c-12 0 -22 8 -22 21v22c0 13 10 21 22 21h20c65 0 99 46 99 101z" />
    <glyph glyph-name="registered" unicode="&#xae;" horiz-adv-x="832" 
d="M83 336v154c0 60 12 113 34 158c56 118 175 184 299 184s241 -65 298 -182c22 -46 35 -99 35 -160v-154c0 -90 -28 -165 -73 -221c-63 -79 -160 -122 -260 -122c-101 0 -198 43 -261 123c-45 56 -72 131 -72 220zM138 490v-154c0 -92 33 -166 86 -217
c50 -47 117 -74 193 -74c75 0 143 27 192 74c53 51 85 125 85 217v154c0 61 -15 114 -40 158c-48 83 -135 132 -239 132s-191 -50 -239 -135c-24 -43 -38 -95 -38 -155zM558 550v-14c0 -49 -3 -86 -38 -117l-8 -7c-6 -6 -8 -11 -8 -16s2 -10 8 -16l8 -7
c37 -33 34 -90 34 -136v-86c0 -14 -11 -25 -25 -25h-14c-14 0 -25 11 -25 25v86c0 54 -5 88 -21 107c-14 17 -33 26 -54 26h-40c-13 0 -21 -10 -21 -23v-196c0 -14 -11 -25 -25 -25h-14c-14 0 -25 11 -25 25v523c0 16 16 30 30 30h93c94 0 145 -45 145 -154zM376 428h41
c19 0 38 7 51 20s22 33 22 61v55c0 55 -33 81 -72 81h-40c-16 0 -24 -7 -24 -22v-173c0 -15 7 -22 22 -22z" />
    <glyph glyph-name="copyright" unicode="&#xa9;" horiz-adv-x="832" 
d="M254 312v201c0 125 68 185 165 185c122 0 163 -82 163 -166v-2c0 -12 -9 -21 -21 -21h-28c-11 0 -20 9 -20 21v2c0 46 -21 102 -94 102c-64 0 -96 -42 -96 -133v-177c0 -91 32 -133 96 -133c75 0 94 56 94 114v2c0 12 9 21 20 21h28c12 0 21 -9 21 -21v-14
c0 -84 -39 -166 -163 -166c-102 0 -165 63 -165 185zM83 336v154c0 60 12 113 34 158c56 118 175 184 299 184s241 -65 298 -182c22 -46 35 -99 35 -160v-154c0 -90 -28 -165 -73 -221c-63 -79 -160 -122 -260 -122c-101 0 -198 43 -261 123c-45 56 -72 131 -72 220z
M138 490v-154c0 -92 33 -166 86 -217c50 -47 117 -74 193 -74c75 0 143 27 192 74c53 51 85 125 85 217v154c0 61 -15 114 -40 158c-48 83 -135 132 -239 132s-191 -50 -239 -135c-24 -43 -38 -95 -38 -155z" />
    <glyph glyph-name="trademark" unicode="&#x2122;" horiz-adv-x="664" 
d="M579 746v-212c0 -14 -7 -19 -20 -20h-3c-15 0 -24 7 -24 20v225c0 18 -15 30 -33 30c-19 0 -32 -12 -32 -30v-225c0 -14 -7 -19 -21 -20h-2c-16 0 -23 7 -23 20v225c0 18 -15 30 -33 30c-19 0 -32 -12 -32 -30v-225c0 -14 -7 -19 -20 -20h-4c-15 0 -23 7 -23 20v273
c0 15 8 22 22 22c6 0 9 -1 12 -2l2 -1c2 -1 6 -3 10 -3c13 0 20 6 36 6c15 0 30 -4 38 -8c6 -3 12 -5 16 -5s12 4 15 5c11 4 25 8 42 8c39 0 77 -21 77 -83zM251 786h-36c-11 0 -16 -8 -16 -17v-235c0 -14 -7 -19 -21 -20h-3c-15 0 -23 7 -23 20v235c0 9 -5 17 -16 17h-36
c-11 0 -16 5 -16 17v7c1 9 6 15 16 15h151c10 0 15 -8 16 -16v-6c0 -9 -5 -17 -16 -17z" />
    <glyph glyph-name="acute" unicode="&#xb4;" horiz-adv-x="458" 
d="M290 786l-113 -95c-9 -8 -16 -9 -21 -9c-12 0 -21 11 -21 22c0 8 3 13 13 25l59 74c14 17 26 22 46 22h23c13 0 22 -11 22 -21c0 -6 -2 -13 -8 -18z" />
    <glyph glyph-name="dieresis" unicode="&#xa8;" horiz-adv-x="458" 
d="M140 774v-30c0 -13 -9 -22 -21 -22h-32c-12 0 -21 9 -21 22v30c0 12 9 21 21 21h32c12 0 21 -9 21 -21zM338 774v-30c0 -13 -9 -22 -21 -22h-32c-12 0 -22 9 -22 22v30c0 12 10 21 22 21h32c12 0 21 -9 21 -21z" />
    <glyph glyph-name="AE" unicode="&#xc6;" horiz-adv-x="599" 
d="M223 832c36 0 56 -9 69 -17c10 -6 15 -11 21 -11c5 0 6 6 9 11c3 6 7 10 18 10h182c12 0 21 -10 21 -21v-23c0 -11 -8 -20 -21 -20h-121c-13 0 -20 -7 -20 -20v-271c0 -13 7 -20 20 -20h127c13 0 22 -9 22 -20v-23c0 -12 -9 -21 -22 -21h-127c-13 0 -20 -7 -20 -20v-282
c0 -13 7 -20 20 -20h121c12 0 21 -9 21 -20v-24c0 -12 -9 -20 -21 -20h-189c-11 0 -21 10 -21 21v343c0 12 -8 22 -22 22h-135c-10 0 -21 -9 -21 -22v-343c0 -11 -9 -21 -22 -21h-25c-11 0 -22 10 -22 21v634c0 125 76 177 158 177zM134 648v-177c0 -13 11 -22 21 -22h135
c13 0 22 10 22 22v177c0 81 -31 120 -89 120s-89 -39 -89 -120z" />
    <glyph glyph-name="Oslash" unicode="&#xd8;" 
d="M134 648v-288c0 -13 10 -24 23 -24c10 0 19 6 22 15l126 296c7 18 10 35 10 50c0 19 -5 35 -17 48c-17 18 -43 27 -67 27c-27 0 -51 -9 -69 -27c-20 -21 -28 -53 -28 -97zM334 179v288c0 13 -10 24 -24 24c-10 0 -18 -6 -21 -15l-127 -296c-7 -18 -10 -35 -10 -50
c0 -19 5 -35 18 -48c17 -18 42 -27 67 -27c27 0 51 9 68 27c22 21 29 53 29 97zM56 -13c-13 0 -22 10 -22 21c0 8 3 14 6 21l29 56c2 5 4 12 4 20c0 6 -1 12 -3 22c-3 16 -5 28 -5 88v431c0 63 16 102 41 132c29 33 69 54 126 54c43 0 76 -10 105 -30l4 -3c4 -3 8 -5 13 -5
c9 0 16 5 22 15l5 11c6 13 15 18 25 18c13 0 23 -10 23 -21c0 -8 -3 -14 -7 -21l-24 -56c-2 -5 -3 -11 -3 -18s1 -15 3 -24c4 -16 5 -53 5 -88v-431c0 -63 -17 -102 -43 -132c-28 -33 -68 -54 -125 -54c-43 0 -81 10 -109 30l-4 3c-4 3 -9 4 -14 4c-9 0 -16 -4 -21 -14
l-5 -11c-6 -13 -14 -18 -26 -18z" />
    <glyph glyph-name="plusminus" unicode="&#xb1;" horiz-adv-x="549" 
d="M448 272h-118c-12 0 -22 -7 -22 -20v-125c0 -12 -10 -21 -22 -21h-24c-12 0 -22 9 -22 21v125c0 12 -8 20 -20 20h-120c-13 0 -22 9 -22 21v22c0 12 9 21 22 21h119c12 0 21 7 21 20v125c0 12 10 21 22 21h24c12 0 22 -9 22 -21v-125c0 -12 8 -20 20 -20h120
c13 0 22 -9 22 -21v-22c0 -12 -9 -21 -22 -21zM448 0h-348c-13 0 -22 9 -22 21v23c0 11 9 20 22 20h348c13 0 22 -9 22 -20v-23c0 -12 -9 -21 -22 -21z" />
    <glyph glyph-name="yen" unicode="&#xa5;" 
d="M72 426h104c13 0 23 10 23 22c0 13 -13 18 -25 22l-8 2c-65 18 -101 76 -101 169v164c0 11 12 20 23 20h25c12 0 21 -9 21 -20v-150c0 -48 5 -85 28 -107c20 -19 43 -28 72 -28c26 0 54 9 72 28c23 22 30 59 30 107v150c0 11 10 20 22 20h26c12 0 21 -9 21 -20v-164
c0 -102 -57 -156 -105 -169l-7 -2c-11 -3 -25 -9 -25 -22c0 -12 10 -22 22 -22h106c12 0 21 -9 21 -21v-21c0 -12 -9 -21 -21 -21h-107c-12 0 -21 -8 -21 -20v-34c0 -12 9 -20 21 -20h107c12 0 21 -9 21 -21v-21c0 -12 -9 -21 -21 -21h-107c-12 0 -21 -8 -21 -20v-186
c0 -11 -10 -20 -22 -20h-24c-13 0 -22 9 -22 20v186c0 13 -9 20 -21 20h-107c-13 0 -22 9 -22 21v21c0 12 9 21 22 21h107c12 0 21 7 21 20v34c0 13 -9 20 -21 20h-107c-13 0 -22 9 -22 21v21c0 12 9 21 22 21z" />
    <glyph glyph-name="mu" unicode="&#xb5;" horiz-adv-x="457" 
d="M63 -144v758c0 12 10 21 22 21h24c13 0 22 -9 22 -21v-436c0 -79 38 -121 102 -121c27 0 52 11 68 33c15 21 26 52 26 97v427c0 12 9 21 21 21h25c12 0 21 -9 21 -21v-434c0 -61 -15 -105 -41 -136c-27 -33 -69 -51 -113 -51c-40 0 -60 11 -77 16c-3 1 -7 2 -13 2
c-7 0 -12 -3 -15 -7s-5 -9 -5 -19c0 -4 1 -19 1 -28v-101c0 -12 -9 -21 -22 -21h-24c-12 0 -22 9 -22 21z" />
    <glyph glyph-name="ordfeminine" unicode="&#xaa;" horiz-adv-x="382" 
d="M321 693v-290c0 -18 -15 -30 -31 -30c-9 0 -20 9 -26 14l-8 5c-4 3 -10 3 -12 3c-16 0 -30 -22 -76 -22c-38 0 -107 32 -107 136c0 56 16 93 41 115c21 18 46 26 88 26h43c13 0 21 10 21 23v23c0 39 -18 77 -61 77c-52 0 -60 -44 -61 -52l-1 -8c-1 -10 -8 -20 -20 -20
h-30c-12 0 -20 8 -20 20c0 3 5 119 132 119c79 0 128 -56 128 -139zM233 594h-47c-40 0 -60 -28 -60 -66v-32c0 -33 23 -65 61 -65c42 0 67 30 67 65v75c0 13 -8 23 -21 23z" />
    <glyph glyph-name="ordmasculine" unicode="&#xba;" horiz-adv-x="392" 
d="M195 436c27 0 60 12 60 69v196c0 57 -33 69 -60 69c-26 0 -60 -12 -60 -69v-196c0 -57 34 -69 60 -69zM195 374c-85 0 -126 74 -126 140v178c0 66 41 140 126 140s127 -74 127 -140v-178c0 -66 -42 -140 -127 -140z" />
    <glyph glyph-name="ae" unicode="&#xe6;" horiz-adv-x="687" 
d="M126 183v-4c0 -86 36 -122 92 -122c33 0 55 11 70 34c14 19 20 46 20 88v96c0 12 -6 21 -21 21h-65c-32 0 -55 -10 -69 -26c-18 -21 -27 -47 -27 -87zM376 444v-64c0 -15 7 -20 20 -20h141c12 0 21 7 21 21v65c0 94 -37 132 -92 132c-61 0 -90 -43 -90 -134zM211 642
c54 0 80 -15 111 -43l5 -4c6 -6 10 -8 14 -8c5 0 10 2 16 8l6 4c30 28 61 43 104 43c97 0 158 -62 158 -186v-139c0 -11 -11 -21 -20 -21h-209c-12 0 -20 -7 -20 -20v-84c0 -91 30 -135 91 -135c62 0 91 44 91 117v4c0 11 10 20 20 20h27c10 0 20 -9 20 -20v0
c0 -124 -60 -185 -158 -185c-43 0 -74 15 -104 43l-6 4c-6 6 -11 8 -16 8c-4 0 -8 -2 -14 -8l-5 -4c-31 -28 -63 -43 -117 -43c-91 0 -148 77 -148 181v11c0 42 10 79 31 112c23 36 65 63 126 63h73c12 0 21 8 21 21v72c0 85 -36 125 -92 125c-52 0 -90 -46 -90 -113v-17
c0 -12 -10 -21 -22 -21h-26c-11 0 -20 9 -20 21v17c0 114 68 177 153 177z" />
    <glyph glyph-name="oslash" unicode="&#xf8;" horiz-adv-x="458" 
d="M128 444v-168c0 -10 9 -18 22 -18c10 0 19 4 22 11l123 230c6 11 9 19 9 27c0 9 -4 17 -13 27c-17 20 -45 25 -69 25c-26 0 -49 -10 -67 -30c-20 -23 -27 -56 -27 -104zM324 191v168c0 10 -10 18 -23 18c-10 0 -18 -4 -21 -11l-124 -230c-6 -11 -9 -19 -9 -27
c0 -9 4 -17 13 -27c18 -20 45 -25 70 -25s49 10 66 30c20 23 28 56 28 104zM60 185v274c0 61 16 101 40 130c29 33 68 53 123 53c41 0 75 -9 103 -29l4 -3c3 -3 7 -5 11 -5c7 0 15 5 22 19l6 9c6 10 12 11 21 11c13 0 23 -10 23 -18c0 -7 -3 -11 -6 -17l-21 -38
c-5 -10 -7 -17 -7 -25s2 -17 5 -28c4 -12 6 -41 6 -68v-274c0 -61 -15 -101 -40 -130c-28 -33 -67 -53 -122 -53c-42 0 -76 9 -103 29l-4 3c-3 3 -7 5 -12 5c-7 0 -15 -5 -22 -19l-5 -9c-6 -10 -12 -11 -22 -11c-13 0 -23 10 -23 18c0 7 3 11 6 17l22 38c5 10 7 17 7 25
s-2 16 -5 28c-4 12 -7 41 -7 68z" />
    <glyph glyph-name="questiondown" unicode="&#xbf;" horiz-adv-x="451" 
d="M52 17v36c0 84 35 135 70 186l22 32c40 57 41 66 44 149l1 32c0 11 7 21 23 21h18c15 0 21 -8 21 -21l1 -32c1 -21 1 -52 1 -55c0 -67 -32 -96 -60 -135l-11 -16c-27 -39 -62 -88 -62 -167v-20c0 -98 39 -134 99 -134c66 0 100 44 100 134v45c0 11 11 21 22 21h23
c12 0 23 -9 23 -20v-57c0 -126 -66 -187 -168 -187c-100 0 -167 64 -167 188zM259 640v-36c0 -12 -10 -21 -22 -21h-36c-12 0 -21 9 -21 21v36c0 12 9 21 21 21h36c12 0 22 -9 22 -21z" />
    <glyph glyph-name="exclamdown" unicode="&#xa1;" horiz-adv-x="240" 
d="M88 -143v132c0 154 1 310 1 464c0 11 8 20 20 20h22c12 0 21 -9 21 -20c0 -154 1 -310 1 -464v-132c0 -11 -9 -21 -21 -21h-24c-11 0 -20 10 -20 21zM159 640v-36c0 -12 -9 -21 -21 -21h-36c-12 0 -21 9 -21 21v36c0 12 9 21 21 21h36c12 0 21 -9 21 -21z" />
    <glyph glyph-name="florin" unicode="&#x192;" horiz-adv-x="368" 
d="M203 481l-67 -505c-14 -110 -61 -141 -154 -141h-7c-12 0 -19 6 -19 19v30c0 9 5 16 18 16h20c47 0 67 23 72 61l67 493c3 20 3 22 3 34c0 9 -6 18 -22 18h-38c-10 0 -16 7 -16 16v28c0 12 6 17 19 17h49c16 0 21 11 22 21l18 119c15 109 68 125 158 125h4
c12 0 20 -8 20 -21v-24c0 -9 -7 -19 -20 -19h-29c-54 0 -64 -22 -68 -57l-11 -91c-1 -12 -3 -26 -3 -33c0 -13 1 -20 20 -20h40c12 0 16 -7 16 -16v-29c0 -8 -4 -16 -16 -16h-53c-16 0 -21 -12 -23 -25z" />
    <glyph glyph-name="guillemotleft" unicode="&#xab;" horiz-adv-x="430" 
d="M64 395c0 7 4 16 11 24l85 85c7 7 14 13 22 13c12 0 21 -9 21 -19c0 -6 -2 -13 -9 -22l-38 -62c-4 -6 -7 -12 -7 -19s3 -13 7 -19l38 -62c7 -9 9 -16 9 -22c0 -10 -9 -19 -21 -19c-8 0 -15 6 -22 13l-85 85c-7 8 -11 17 -11 24zM226 395c0 7 4 16 11 24l85 85
c7 7 14 13 22 13c12 0 21 -9 21 -19c0 -6 -2 -13 -9 -22l-38 -62c-4 -6 -7 -12 -7 -19s3 -13 7 -19l38 -62c7 -9 9 -16 9 -22c0 -10 -9 -19 -21 -19c-8 0 -15 6 -22 13l-85 85c-7 8 -11 17 -11 24z" />
    <glyph glyph-name="guillemotright" unicode="&#xbb;" horiz-adv-x="430" 
d="M206 395c0 -7 -4 -16 -12 -24l-84 -85c-7 -7 -15 -13 -23 -13c-12 0 -20 9 -20 19c0 6 2 13 8 22l39 62c4 6 7 12 7 19s-3 13 -7 19l-39 62c-6 9 -8 16 -8 22c0 10 8 19 20 19c8 0 16 -6 23 -13l84 -85c8 -8 12 -17 12 -24zM363 395c0 -7 -4 -16 -12 -24l-84 -85
c-7 -7 -15 -13 -23 -13c-12 0 -20 9 -20 19c0 6 2 13 8 22l39 62c4 6 7 12 7 19s-3 13 -7 19l-39 62c-6 9 -8 16 -8 22c0 10 8 19 20 19c8 0 16 -6 23 -13l84 -85c8 -8 12 -17 12 -24z" />
    <glyph glyph-name="ellipsis" unicode="&#x2026;" horiz-adv-x="684" 
d="M74 21v36c0 12 10 21 22 21h35c13 0 22 -9 22 -21v-36c0 -12 -9 -21 -22 -21h-35c-12 0 -22 9 -22 21zM302 21v36c0 12 10 21 22 21h35c13 0 22 -9 22 -21v-36c0 -12 -9 -21 -22 -21h-35c-12 0 -22 9 -22 21zM529 21v36c0 12 10 21 22 21h35c13 0 22 -9 22 -21v-36
c0 -12 -9 -21 -22 -21h-35c-12 0 -22 9 -22 21z" />
    <glyph glyph-name="OE" unicode="&#x152;" horiz-adv-x="599" 
d="M522 0h-182c-11 0 -15 4 -18 10c-3 5 -4 11 -9 11c-6 0 -11 -5 -21 -11c-13 -8 -33 -17 -69 -17c-82 0 -158 52 -158 177v485c0 125 76 177 158 177c36 0 56 -9 69 -17c10 -6 15 -11 21 -11c5 0 6 6 9 11c3 6 7 10 18 10h182c12 0 21 -10 21 -21v-23
c0 -11 -8 -20 -21 -20h-121c-13 0 -20 -7 -20 -20v-271c0 -13 7 -20 20 -20h127c13 0 22 -9 22 -20v-23c0 -12 -9 -21 -22 -21h-127c-13 0 -20 -7 -20 -20v-282c0 -13 7 -20 20 -20h121c12 0 21 -9 21 -20v-24c0 -12 -9 -20 -21 -20zM312 177v471c0 81 -31 120 -89 120
s-89 -39 -89 -120v-471c0 -81 31 -120 89 -120s89 39 89 120z" />
    <glyph glyph-name="oe" unicode="&#x153;" horiz-adv-x="692" 
d="M376 444v-56c0 -15 7 -20 20 -20h141c12 0 21 7 21 21v57c0 94 -37 132 -92 132c-61 0 -90 -43 -90 -134zM57 177l1 288c0 114 68 177 153 177c54 0 80 -15 111 -43l5 -4c6 -6 10 -8 14 -8c5 0 10 2 16 8l6 4c30 28 61 43 104 43c97 0 158 -62 158 -186v-129
c0 -11 -11 -21 -20 -21h-209c-12 0 -20 -7 -20 -20v-94c0 -91 30 -135 91 -135c62 0 91 40 91 117v4c0 11 11 20 21 20h26c10 0 20 -9 20 -20c0 -123 -60 -185 -158 -185c-43 0 -74 15 -104 43l-6 4c-6 6 -11 8 -16 8c-4 0 -8 -2 -14 -8l-5 -4c-31 -28 -63 -43 -117 -43
c-91 0 -148 80 -148 184zM126 465v-283c0 -86 36 -125 92 -125c33 0 55 11 70 34c14 19 20 46 20 88v274c0 85 -36 125 -92 125c-52 0 -90 -46 -90 -113z" />
    <glyph glyph-name="endash" unicode="&#x2013;" horiz-adv-x="549" 
d="M448 296h-348c-13 0 -22 9 -22 21v23c0 11 9 20 22 20h348c13 0 22 -9 22 -20v-23c0 -12 -9 -21 -22 -21z" />
    <glyph glyph-name="emdash" unicode="&#x2014;" horiz-adv-x="1000" 
d="M911 296h-821c-13 0 -22 9 -22 21v23c0 11 9 20 22 20h821c12 0 21 -9 21 -20v-23c0 -12 -9 -21 -21 -21z" />
    <glyph glyph-name="quotedblleft" unicode="&#x201c;" horiz-adv-x="430" 
d="M135 820l8 6c5 4 11 6 16 6s10 -3 15 -10l3 -4c4 -5 6 -10 6 -14c0 -6 -4 -12 -10 -17l-8 -6c-17 -12 -20 -19 -20 -29c0 -7 3 -11 12 -15l6 -3c6 -3 11 -10 11 -18v-36c0 -8 -8 -20 -20 -20h-39c-14 0 -23 9 -23 22v44c0 29 6 46 15 60c8 15 19 27 28 34zM300 820l8 6
c5 4 11 6 16 6s10 -3 15 -10l3 -4c4 -5 6 -10 6 -14c0 -6 -4 -12 -10 -17l-8 -6c-17 -12 -20 -19 -20 -29c0 -7 3 -11 12 -15l6 -3c6 -3 11 -10 11 -18v-36c0 -8 -8 -20 -20 -20h-39c-14 0 -23 9 -23 22v44c0 29 6 46 15 60c8 15 19 27 28 34z" />
    <glyph glyph-name="quotedblright" unicode="&#x201d;" horiz-adv-x="430" 
d="M129 665l-8 -6c-5 -4 -11 -6 -15 -6c-5 0 -10 3 -15 10l-3 4c-5 5 -7 10 -7 14c0 6 4 12 11 17l8 6c16 12 19 19 19 29c0 7 -3 11 -11 15l-6 3c-6 3 -11 10 -11 18v36c0 8 8 20 19 20h40c13 0 22 -9 22 -22v-44c0 -29 -6 -46 -14 -60c-8 -15 -19 -27 -29 -34zM295 665
l-8 -6c-5 -4 -11 -6 -15 -6c-5 0 -10 3 -15 10l-3 4c-5 5 -7 10 -7 14c0 6 4 12 11 17l8 6c16 12 19 19 19 29c0 7 -3 11 -11 15l-6 3c-6 3 -11 10 -11 18v36c0 8 8 20 19 20h40c13 0 22 -9 22 -22v-44c0 -29 -6 -46 -14 -60c-8 -15 -19 -27 -29 -34z" />
    <glyph glyph-name="quoteleft" unicode="&#x2018;" horiz-adv-x="222" 
d="M113 820l8 6c5 4 11 6 16 6s10 -3 15 -10l3 -4c4 -5 6 -10 6 -14c0 -6 -4 -12 -10 -17l-8 -6c-17 -12 -20 -19 -20 -29c0 -7 3 -11 12 -15l6 -3c6 -3 11 -10 11 -18v-36c0 -8 -8 -20 -20 -20h-39c-14 0 -23 9 -23 22v44c0 29 6 46 15 60c8 15 19 27 28 34z" />
    <glyph glyph-name="quoteright" unicode="&#x2019;" horiz-adv-x="222" 
d="M108 665l-8 -6c-5 -4 -11 -6 -15 -6c-5 0 -10 3 -15 10l-3 4c-5 5 -7 10 -7 14c0 6 4 12 11 17l8 6c16 12 19 19 19 29c0 7 -3 11 -11 15l-6 3c-6 3 -11 10 -11 18v36c0 8 8 20 19 20h40c13 0 22 -9 22 -22v-44c0 -29 -6 -46 -14 -60c-8 -15 -19 -27 -29 -34z" />
    <glyph glyph-name="divide" unicode="&#xf7;" horiz-adv-x="549" 
d="M235 470v36c0 12 10 21 22 21h35c13 0 22 -9 22 -21v-36c0 -12 -9 -21 -22 -21h-35c-12 0 -22 9 -22 21zM235 150v36c0 12 10 21 22 21h35c13 0 22 -9 22 -21v-36c0 -12 -9 -21 -22 -21h-35c-12 0 -22 9 -22 21zM448 296h-348c-13 0 -22 9 -22 21v23c0 11 9 20 22 20h348
c13 0 22 -9 22 -20v-23c0 -12 -9 -21 -22 -21z" />
    <glyph glyph-name="fraction" unicode="&#x2044;" horiz-adv-x="200" 
d="M-33 25l226 785c5 16 10 20 20 20h8c13 0 17 -6 17 -17c0 -4 -2 -18 -7 -36c-76 -254 -148 -509 -222 -763c-4 -14 -12 -19 -22 -19h-7c-13 0 -17 5 -17 16c0 5 3 10 4 14z" />
    <glyph glyph-name="guilsinglleft" unicode="&#x2039;" horiz-adv-x="222" 
d="M41 395c0 7 4 16 11 24l85 85c7 7 14 13 22 13c12 0 21 -9 21 -19c0 -6 -2 -13 -9 -22l-38 -62c-4 -6 -7 -12 -7 -19s3 -13 7 -19l38 -62c7 -9 9 -16 9 -22c0 -10 -9 -19 -21 -19c-8 0 -15 6 -22 13l-85 85c-7 8 -11 17 -11 24z" />
    <glyph glyph-name="guilsinglright" unicode="&#x203a;" horiz-adv-x="222" 
d="M180 395c0 -7 -4 -16 -12 -24l-84 -85c-7 -7 -15 -13 -23 -13c-12 0 -20 9 -20 19c0 6 2 13 8 22l39 62c4 6 7 12 7 19s-3 13 -7 19l-39 62c-6 9 -8 16 -8 22c0 10 8 19 20 19c8 0 16 -6 23 -13l84 -85c8 -8 12 -17 12 -24z" />
    <glyph glyph-name="daggerdbl" unicode="&#x2021;" horiz-adv-x="457" 
d="M197 206v291c0 13 -8 18 -22 18h-131c-9 0 -20 9 -20 21v20c0 10 11 20 20 20h131c14 0 22 6 22 19v209c0 12 10 21 20 21h24c9 0 19 -10 19 -21v-209c0 -13 9 -19 21 -19h131c9 0 20 -9 20 -20v-20c0 -11 -11 -21 -20 -21h-131c-12 0 -21 -5 -21 -18v-291
c0 -13 8 -18 21 -18h132c9 0 19 -9 19 -21v-20c0 -10 -10 -20 -19 -20h-132c-13 0 -21 -6 -21 -19v-213c0 -12 -10 -21 -20 -21h-24c-9 0 -19 10 -19 21v213c0 13 -9 19 -22 19h-130c-9 0 -21 9 -21 20v20c0 11 12 21 21 21h130c13 0 22 5 22 18z" />
    <glyph glyph-name="periodcentered" unicode="&#xb7;" horiz-adv-x="222" 
d="M71 392v36c0 12 10 21 22 21h35c13 0 22 -9 22 -21v-36c0 -12 -9 -21 -22 -21h-35c-12 0 -22 9 -22 21z" />
    <glyph glyph-name="quotesinglbase" unicode="&#x201a;" horiz-adv-x="222" 
d="M108 -82l-8 -6c-5 -4 -11 -6 -15 -6c-5 0 -10 3 -15 10l-3 4c-5 5 -7 10 -7 14c0 6 4 12 11 17l8 6c16 12 19 19 19 29c0 7 -3 11 -11 15l-6 3c-6 3 -11 10 -11 18v36c0 8 8 20 19 20h40c13 0 22 -9 22 -22v-44c0 -29 -6 -46 -14 -60c-8 -15 -19 -27 -29 -34z" />
    <glyph glyph-name="quotedblbase" unicode="&#x201e;" horiz-adv-x="430" 
d="M129 -82l-8 -6c-5 -4 -11 -6 -15 -6c-5 0 -10 3 -15 10l-3 4c-5 5 -7 10 -7 14c0 6 4 12 11 17l8 6c16 12 19 19 19 29c0 7 -3 11 -11 15l-6 3c-6 3 -11 10 -11 18v36c0 8 8 20 19 20h40c13 0 22 -9 22 -22v-44c0 -29 -6 -46 -14 -60c-8 -15 -19 -27 -29 -34zM295 -82
l-8 -6c-5 -4 -11 -6 -15 -6c-5 0 -10 3 -15 10l-3 4c-5 5 -7 10 -7 14c0 6 4 12 11 17l8 6c16 12 19 19 19 29c0 7 -3 11 -11 15l-6 3c-6 3 -11 10 -11 18v36c0 8 8 20 19 20h40c13 0 22 -9 22 -22v-44c0 -29 -6 -46 -14 -60c-8 -15 -19 -27 -29 -34z" />
    <glyph glyph-name="perthousand" unicode="&#x2030;" horiz-adv-x="1127" 
d="M216 39l311 771c2 7 6 12 9 15c4 5 10 7 18 7h16c7 0 12 -2 16 -5s6 -9 6 -16c0 -3 -3 -9 -5 -18l-311 -771c-2 -7 -6 -12 -9 -15c-4 -5 -10 -7 -19 -7h-15c-7 0 -12 2 -16 5s-6 9 -6 16c0 3 3 9 5 18zM95 614v80c0 89 49 139 126 139c76 0 123 -51 123 -139v-80
c0 -93 -53 -138 -123 -138c-76 0 -126 47 -126 138zM283 616v75c0 63 -23 86 -62 86c-41 0 -63 -26 -63 -86v-75c0 -58 22 -85 63 -85c39 0 62 24 62 85zM456 131v80c0 89 48 139 125 139c76 0 123 -51 123 -139v-80c0 -93 -53 -138 -123 -138c-75 0 -125 47 -125 138z
M643 133v75c0 63 -23 86 -62 86c-41 0 -63 -26 -63 -86v-75c0 -58 22 -85 63 -85c39 0 62 24 62 85zM782 131v80c0 89 49 139 125 139c77 0 124 -51 124 -139v-80c0 -93 -53 -138 -124 -138c-75 0 -125 47 -125 138zM970 133v75c0 63 -24 86 -63 86c-40 0 -63 -26 -63 -86
v-75c0 -58 23 -85 63 -85c39 0 63 24 63 85z" />
    <glyph glyph-name="dotlessi" unicode="&#x131;" horiz-adv-x="223" 
d="M78 21v593c0 12 10 21 22 21h23c13 0 22 -9 22 -21v-593c0 -12 -9 -21 -22 -21h-23c-12 0 -22 9 -22 21z" />
    <glyph glyph-name="circumflex" unicode="&#x2c6;" horiz-adv-x="458" 
d="M280 695l-46 41c-8 7 -15 10 -22 10s-16 -3 -23 -10l-46 -41c-5 -4 -12 -8 -18 -8c-14 0 -23 10 -23 22c0 6 4 12 13 23l73 87c7 8 14 13 24 13s16 -5 23 -13l74 -87c9 -11 13 -17 13 -23c0 -12 -9 -22 -24 -22c-6 0 -13 4 -18 8z" />
    <glyph glyph-name="tilde" unicode="&#x2dc;" horiz-adv-x="458" 
d="M193 730l-10 9c-10 9 -15 13 -25 13s-18 -7 -21 -18l-2 -8c-3 -10 -12 -18 -25 -18c-12 0 -23 10 -23 25c0 39 42 77 76 77c24 0 42 -6 60 -21l10 -9c10 -9 15 -13 24 -13c10 0 19 7 22 18l2 8c3 10 11 18 23 18s24 -10 24 -24c0 -40 -39 -78 -74 -78c-23 0 -44 6 -61 21
z" />
    <glyph glyph-name="macron" unicode="&#xaf;" horiz-adv-x="458" 
d="M113 783h209c13 0 22 -8 22 -20v-16c0 -12 -9 -20 -22 -20h-209c-12 0 -21 8 -21 20v16c0 12 9 20 21 20z" />
    <glyph glyph-name="breve" unicode="&#x2d8;" horiz-adv-x="458" 
d="M213 691c-50 0 -98 33 -98 92c0 31 5 49 28 49c7 0 13 -3 17 -8s6 -13 6 -22v-5c0 -29 22 -46 47 -46c26 0 47 17 47 46v5c0 9 2 17 6 22s11 8 18 8c22 0 27 -18 27 -49c0 -59 -46 -92 -98 -92z" />
    <glyph glyph-name="dotaccent" unicode="&#x2d9;" horiz-adv-x="458" 
d="M159 771v33c0 12 9 21 21 21h32c12 0 21 -9 21 -21v-33c0 -12 -9 -21 -21 -21h-32c-12 0 -21 9 -21 21z" />
    <glyph glyph-name="ring" unicode="&#x2da;" horiz-adv-x="458" 
d="M189 756c0 -15 13 -27 28 -27s29 12 29 27c0 16 -14 28 -29 28s-28 -12 -28 -28zM141 756c0 41 34 76 76 76s77 -35 77 -76s-35 -75 -77 -75s-76 34 -76 75z" />
    <glyph glyph-name="cedilla" unicode="&#xb8;" horiz-adv-x="458" 
d="M273 -99c0 -46 -35 -72 -80 -72c-9 0 -20 1 -29 3c-12 3 -21 9 -21 22c0 22 15 20 36 21c20 1 30 12 30 26s-10 25 -30 26c-21 1 -36 -1 -36 21c0 12 8 18 19 21c9 3 21 4 31 4c45 0 80 -26 80 -72z" />
    <glyph glyph-name="hungarumlaut" unicode="&#x2dd;" horiz-adv-x="458" 
d="M342 784l-120 -96c-5 -4 -11 -8 -18 -8c-14 0 -23 10 -23 22c0 6 2 12 12 23l69 80c14 16 21 20 42 20h26c13 0 22 -11 22 -21c0 -7 -2 -13 -10 -20zM199 784l-120 -96c-5 -4 -11 -8 -17 -8c-15 0 -24 10 -24 22c0 6 2 12 12 23l69 80c14 16 21 20 43 20h25
c13 0 23 -11 23 -21c0 -7 -2 -13 -11 -20z" />
    <glyph glyph-name="ogonek" unicode="&#x2db;" horiz-adv-x="458" 
d="M139 -97c0 21 7 38 18 50c14 15 37 24 61 24c22 0 50 -3 50 -25c0 -19 -11 -23 -28 -24h-7c-21 -1 -32 -11 -32 -25c0 -8 4 -15 10 -19c5 -4 12 -6 22 -6h6c17 -1 29 -4 29 -24c0 -11 -7 -17 -16 -21c-10 -4 -22 -4 -34 -4c-23 0 -44 8 -59 22c-12 13 -20 30 -20 52z" />
    <glyph glyph-name="caron" unicode="&#x2c7;" horiz-adv-x="458" 
d="M234 783l46 41c5 4 12 8 18 8c15 0 24 -10 24 -22c0 -6 -4 -12 -13 -23l-74 -87c-7 -8 -13 -13 -23 -13s-17 5 -24 13l-73 87c-9 11 -13 17 -13 23c0 12 9 22 23 22c6 0 13 -4 18 -8l46 -41c7 -7 16 -10 23 -10s14 3 22 10z" />
    <glyph glyph-name="Euro" unicode="&#x20ac;" horiz-adv-x="498" 
d="M165 291v-100c0 -90 33 -134 100 -134c64 0 99 42 99 134v42c0 12 11 21 22 21h25c12 0 22 -9 22 -21v-58c0 -119 -64 -182 -168 -182c-105 0 -169 64 -169 182v116c0 13 -9 20 -21 20h-29c-12 0 -21 9 -21 21v21c0 12 9 21 21 21h29c12 0 21 7 21 20v42
c0 13 -9 20 -21 20h-29c-12 0 -21 9 -21 21v21c0 12 9 21 21 21h29c13 0 21 10 21 22v108c0 122 67 183 169 183c110 0 168 -73 168 -183v-60c0 -11 -10 -21 -22 -21h-25c-11 0 -22 10 -22 21v45c0 92 -35 134 -99 134c-66 0 -100 -44 -100 -134v-93c0 -12 10 -22 22 -22h86
c12 0 21 -9 21 -21v-21c0 -12 -9 -21 -21 -21h-88c-12 0 -20 -8 -20 -20v-42c0 -12 8 -20 20 -20h88c12 0 21 -9 21 -21v-21c0 -12 -9 -21 -21 -21h-88c-12 0 -20 -8 -20 -20z" />
    <glyph glyph-name="Eth" unicode="&#xd0;" 
d="M24 442h17c14 0 24 10 24 23v339c0 11 11 21 22 21h146c102 0 170 -61 170 -188v-450c0 -129 -70 -187 -171 -187h-145c-11 0 -22 9 -22 20v347c0 11 -9 23 -22 23h-19c-13 0 -22 9 -22 21v11c0 11 9 20 22 20zM217 390h-58c-15 0 -25 -9 -25 -23v-281
c0 -13 9 -24 21 -24h80c73 0 99 51 99 117v458c0 75 -26 124 -96 124h-83c-12 0 -21 -10 -21 -23v-273c0 -12 10 -23 23 -23h60c13 0 22 -9 22 -20v-11c0 -12 -9 -21 -22 -21z" />
    <glyph glyph-name="notequal" unicode="&#x2260;" horiz-adv-x="549" 
d="M469 423v-23c0 -12 -8 -20 -21 -20h-100c-11 0 -19 -5 -22 -15l-15 -57c-4 -8 -5 -13 -5 -17c0 -8 8 -15 17 -15h125c12 0 22 -8 22 -20v-23c0 -12 -9 -20 -22 -20h-144c-13 0 -20 -5 -24 -16l-28 -90c-4 -14 -22 -19 -34 -19h-11c-20 0 -30 4 -30 17c0 7 1 13 4 20
l20 57c2 5 2 8 2 12c0 11 -7 19 -16 19h-85c-12 0 -23 7 -23 20v23c0 11 8 20 21 20h107c11 0 18 4 21 14l17 57c2 6 3 11 3 17c0 9 -5 16 -15 16h-133c-12 0 -22 8 -22 20v23c0 12 9 20 22 20h151c12 0 19 3 21 13l21 88c3 14 19 24 30 24h21c18 0 29 -7 29 -23
c0 -6 -2 -8 -2 -13l-17 -60c-3 -7 -4 -10 -4 -14c0 -8 9 -15 17 -15h79c12 1 23 -7 23 -20z" />
    <glyph glyph-name="infinity" unicode="&#x221e;" horiz-adv-x="578" 
d="M318 330c0 -6 1 -10 5 -17c27 -43 58 -72 97 -72c38 0 78 25 78 89s-40 89 -78 89c-39 0 -70 -30 -97 -72c-4 -7 -5 -11 -5 -17zM80 330c0 -64 39 -89 77 -89s71 29 98 72c5 7 6 11 6 17s-1 10 -6 17c-27 42 -59 72 -98 72c-38 0 -77 -25 -77 -89zM275 243l-9 -9
c-32 -31 -66 -52 -113 -52c-69 0 -137 40 -137 148s68 148 137 148c47 0 82 -20 111 -52l10 -9c6 -6 11 -7 15 -7s9 1 15 7l11 9c29 32 64 52 110 52c69 0 137 -40 137 -148s-68 -148 -137 -148c-49 0 -80 19 -109 50c-16 16 -18 18 -26 18c-4 0 -9 -1 -15 -7z" />
    <glyph glyph-name="lessequal" unicode="&#x2264;" horiz-adv-x="549" 
d="M427 130h-305c-12 0 -21 9 -21 21v23c0 11 9 20 21 20h305c12 0 21 -9 21 -20v-23c0 -12 -9 -21 -21 -21zM101 363v25c0 31 7 46 74 66l234 70c6 2 12 3 17 3c14 0 22 -7 22 -22v-15c0 -13 -4 -20 -23 -26l-231 -66c-13 -4 -23 -9 -23 -22s9 -18 23 -22l231 -66
c19 -6 23 -13 23 -26v-15c0 -15 -8 -22 -22 -22c-5 0 -11 1 -17 3l-235 70c-62 19 -73 35 -73 65z" />
    <glyph glyph-name="greaterequal" unicode="&#x2265;" horiz-adv-x="549" 
d="M427 130h-305c-12 0 -21 9 -21 21v23c0 11 9 20 21 20h305c12 0 21 -9 21 -20v-23c0 -12 -9 -21 -21 -21zM448 388v-25c0 -30 -11 -46 -73 -65l-235 -70c-6 -2 -12 -3 -17 -3c-14 0 -22 7 -22 22v15c0 13 4 20 23 26l231 66c14 4 23 9 23 22s-10 18 -23 22l-231 66
c-19 6 -23 13 -23 26v15c0 15 8 22 22 22c5 0 11 -1 17 -3l234 -70c67 -20 74 -35 74 -66z" />
    <glyph glyph-name="pi" unicode="&#x3c0;" horiz-adv-x="548" 
d="M422 550v-428c0 -41 19 -59 49 -59c13 0 17 1 30 1c14 0 19 -10 19 -16v-32c0 -8 -4 -16 -15 -16h-34c-86 0 -117 28 -117 122v428c0 13 -8 23 -21 23h-126c-13 0 -21 -11 -21 -24v-532c0 -10 -8 -17 -18 -17h-33c-14 0 -17 5 -17 17v532c0 15 -10 24 -24 24h-45
c-16 0 -21 6 -21 16v29c0 14 5 17 17 17h454c12 0 17 -7 17 -17v-29c0 -12 -4 -16 -17 -16h-53c-14 0 -24 -8 -24 -23z" />
    <glyph glyph-name="approxequal" unicode="&#x2248;" horiz-adv-x="549" 
d="M102 364c-16 0 -23 7 -23 22v20c0 9 4 16 11 20c28 18 68 32 103 32c65 0 100 -31 162 -31c32 0 56 13 73 22l4 2c4 2 10 5 15 5c16 0 23 -7 23 -22v-20c0 -9 -4 -16 -11 -20c-28 -18 -68 -31 -103 -31c-66 0 -101 31 -163 31c-31 0 -55 -13 -72 -22l-4 -2
c-4 -2 -10 -5 -15 -6zM102 198c-16 0 -23 7 -23 22v20c0 9 4 16 11 20c28 18 68 32 103 32c65 0 100 -31 162 -31c32 0 56 13 73 22l4 2c4 2 10 5 15 5c16 0 23 -7 23 -22v-20c0 -9 -4 -16 -11 -20c-28 -18 -68 -31 -103 -31c-66 0 -101 31 -163 31c-31 0 -55 -13 -72 -22
l-4 -2c-4 -2 -10 -5 -15 -6z" />
    <glyph glyph-name="lozenge" unicode="&#x25ca;" horiz-adv-x="549" 
d="M274 677c-9 0 -16 -4 -21 -14l-105 -229c-4 -9 -6 -15 -6 -22s2 -14 5 -21l106 -230c5 -10 12 -14 21 -14s16 4 21 14l106 230c3 7 5 14 5 21s-2 13 -6 22l-105 229c-5 10 -12 14 -21 14zM274 -8c-15 0 -22 8 -28 20l-167 367c-6 14 -9 24 -9 34s3 19 9 32l167 367
c6 12 13 20 28 20s22 -8 28 -20l167 -367c6 -13 9 -22 9 -32s-3 -20 -9 -34l-167 -367c-6 -12 -13 -20 -28 -20z" />
    <glyph glyph-name="eth" unicode="&#xf0;" horiz-adv-x="457" 
d="M394 437v-257c0 -130 -68 -187 -165 -187c-94 0 -166 55 -166 186v262c0 159 78 200 167 200c18 0 25 -3 32 -3c10 0 14 5 14 12c0 6 -3 13 -10 20c-21 27 -31 35 -41 35c-6 0 -12 -2 -21 -11l-10 -9c-6 -6 -13 -10 -20 -10c-4 0 -11 3 -16 8l-6 7c-3 3 -4 7 -4 11
c0 6 1 11 11 19l6 5c4 2 7 8 7 12c0 7 -6 12 -14 16c-9 5 -20 10 -30 14s-17 11 -17 19c0 3 1 9 7 18l6 12c5 9 12 14 21 14c3 0 7 0 24 -8c17 -9 31 -17 40 -23c10 -6 18 -10 25 -10c5 0 11 1 18 8l28 24c7 6 13 9 20 9c10 0 26 -11 26 -25c0 -7 -5 -13 -13 -20l-19 -16
c-6 -5 -10 -12 -10 -18s4 -12 9 -16c60 -55 101 -146 101 -298zM229 57c66 0 98 50 98 126v268c0 84 -38 127 -98 127c-64 0 -98 -47 -98 -127v-268c0 -86 40 -126 98 -126z" />
    <glyph glyph-name="Lslash" unicode="&#x141;" horiz-adv-x="357" 
d="M35 368l-4 -2c-4 -2 -9 -4 -12 -4c-8 0 -14 3 -18 10l-5 10c-3 4 -4 8 -4 11c0 7 5 13 13 16l38 20c16 8 22 16 22 34v342c0 11 9 20 20 20h29c11 0 20 -9 20 -20v-302c0 -13 5 -18 13 -18c5 0 10 1 17 5l39 20c6 3 10 4 13 4c7 0 12 -4 16 -11l4 -7c2 -4 3 -8 3 -11
c0 -7 -3 -14 -10 -18l-74 -38c-16 -8 -21 -18 -21 -36v-308c0 -13 9 -23 24 -23h141c14 0 23 -9 23 -20v-22c0 -11 -9 -20 -23 -20h-214c-11 0 -20 9 -20 20v335c0 13 -6 18 -14 18c-4 0 -9 -1 -16 -5z" />
    <glyph glyph-name="braceleft" unicode="{" horiz-adv-x="404" 
d="M337 -102h7c13 0 22 -9 22 -20v-21c0 -12 -9 -22 -22 -22h-11c-118 4 -179 72 -179 190v216c0 77 -39 107 -85 107h-10c-13 0 -22 9 -22 21v23c0 11 9 20 22 20h10c46 0 85 30 85 107v216c0 118 61 190 179 190h12c13 0 22 -9 22 -20v-21c0 -12 -9 -22 -22 -22h-8
c-85 0 -110 -45 -110 -124v-163c0 -76 -4 -139 -42 -172l-9 -8c-5 -5 -7 -10 -7 -15s2 -10 7 -15l9 -8c38 -33 42 -96 42 -172v-163c0 -79 25 -124 110 -124z" />
    <glyph glyph-name="bar" unicode="|" horiz-adv-x="200" 
d="M69 -143v1110c0 12 10 21 22 21h18c12 0 22 -9 22 -21v-1110c0 -12 -10 -21 -22 -21h-18c-12 0 -22 9 -22 21z" />
    <glyph glyph-name="braceright" unicode="}" horiz-adv-x="404" 
d="M59 -102h8c84 0 110 45 110 124v163c0 76 4 139 42 172l9 8c5 5 7 10 7 15s-2 10 -7 15l-9 8c-38 33 -42 96 -42 172v163c0 79 -26 124 -110 124h-9c-12 0 -21 10 -21 22v21c0 11 9 20 21 20h13c118 0 179 -72 179 -190v-216c0 -77 39 -107 85 -107h10c12 0 22 -9 22 -20
v-23c0 -12 -10 -21 -22 -21h-10c-46 0 -85 -30 -85 -107v-216c0 -118 -61 -186 -179 -190h-12c-12 0 -21 10 -21 22v21c0 11 9 20 21 20z" />
    <glyph glyph-name="Adieresis" unicode="&#xc4;" 
d="M172 938v-30c0 -13 -9 -22 -21 -22h-32c-12 0 -21 9 -21 22v30c0 12 9 21 21 21h32c12 0 21 -9 21 -21zM370 938v-30c0 -13 -9 -22 -22 -22h-31c-12 0 -22 9 -22 22v30c0 12 10 21 22 21h31c13 0 22 -9 22 -21zM134 634v-192c0 -13 11 -22 21 -22h157c13 0 22 10 22 22
v192c0 90 -35 134 -100 134s-100 -44 -100 -134zM403 649v-628c0 -11 -10 -21 -21 -21h-27c-11 0 -21 10 -21 21v313c0 12 -8 22 -22 22h-157c-10 0 -21 -9 -21 -22v-313c0 -11 -9 -21 -22 -21h-25c-11 0 -22 10 -22 21v628c0 129 76 183 169 183s169 -54 169 -183z" />
    <glyph glyph-name="Aring" unicode="&#xc5;" 
d="M134 634v-192c0 -13 11 -22 21 -22h157c13 0 22 10 22 22v192c0 90 -35 134 -100 134s-100 -44 -100 -134zM403 649v-628c0 -11 -10 -21 -21 -21h-27c-11 0 -21 10 -21 21v313c0 12 -8 22 -22 22h-157c-10 0 -21 -9 -21 -22v-313c0 -11 -9 -21 -22 -21h-25
c-11 0 -22 10 -22 21v628c0 129 76 183 169 183s169 -54 169 -183zM208 946c0 -15 12 -27 27 -27c16 0 29 12 29 27c0 16 -13 28 -29 28c-15 0 -27 -12 -27 -28zM160 946c0 41 33 76 75 76c43 0 77 -35 77 -76s-34 -75 -77 -75c-42 0 -75 34 -75 75z" />
    <glyph glyph-name="Ccedilla" unicode="&#xc7;" horiz-adv-x="462" 
d="M65 175v474c0 122 67 183 169 183c110 0 169 -73 169 -183v-60c0 -11 -10 -21 -21 -21h-27c-11 0 -21 10 -21 21v45c0 92 -36 134 -100 134c-65 0 -100 -44 -100 -134v-443c0 -90 33 -134 100 -134c64 0 100 42 100 134v42c0 12 10 21 21 21h27c11 0 21 -9 21 -21v-58
c0 -119 -65 -182 -169 -182s-169 64 -169 182zM298 -99c0 -46 -35 -72 -80 -72c-9 0 -20 1 -29 3c-12 3 -21 9 -21 22c0 22 15 20 36 21c20 1 30 12 30 26s-10 25 -30 26c-21 1 -36 -1 -36 21c0 12 8 18 19 21c9 3 21 4 31 4c45 0 80 -26 80 -72z" />
    <glyph glyph-name="Eacute" unicode="&#xc9;" horiz-adv-x="367" 
d="M154 64h143c11 0 21 -10 21 -21v-22c0 -12 -10 -21 -21 -21h-210c-11 0 -22 10 -22 21v783c0 11 11 21 22 21h210c11 0 21 -11 21 -22v-21c0 -11 -9 -21 -21 -21h-143c-13 0 -20 -7 -20 -20v-271c0 -13 7 -20 20 -20h139c12 0 22 -10 22 -21v-21c0 -12 -10 -22 -22 -22
h-139c-13 0 -20 -7 -20 -20v-282c0 -13 7 -20 20 -20zM274 979l-137 -98c-6 -4 -12 -6 -17 -6c-12 0 -22 10 -22 21c0 9 4 12 17 26l72 78c14 15 21 18 42 18h33c13 0 21 -11 21 -21c0 -6 -2 -13 -9 -18z" />
    <glyph glyph-name="Ntilde" unicode="&#xd1;" 
d="M65 20v777c0 15 11 28 30 28c10 0 18 -4 26 -11l2 -2c6 -6 10 -8 17 -8c8 0 23 9 35 13c18 7 42 15 67 15c42 0 87 -14 117 -47c26 -28 44 -69 44 -138v-627c0 -11 -9 -20 -21 -20h-26c-12 0 -22 9 -22 20v611c0 96 -38 137 -99 137c-75 0 -101 -55 -101 -140v-608
c0 -11 -9 -20 -21 -20h-25c-11 0 -23 9 -23 20zM220 917l-10 9c-10 9 -15 13 -25 13s-18 -7 -21 -18l-2 -8c-3 -10 -12 -18 -25 -18c-12 0 -23 10 -23 25c0 39 42 77 76 77c24 0 41 -6 59 -21l10 -9c10 -9 15 -13 24 -13c10 0 19 7 22 18l2 8c3 10 11 18 23 18
s24 -10 24 -24c0 -40 -39 -78 -74 -78c-23 0 -43 6 -60 21z" />
    <glyph glyph-name="Odieresis" unicode="&#xd6;" 
d="M234 57c65 0 100 44 100 134v443c0 90 -35 134 -100 134s-100 -44 -100 -134v-443c0 -90 35 -134 100 -134zM234 -7c-102 0 -169 59 -169 182v474c0 129 76 183 169 183s169 -54 169 -183v-474c0 -123 -67 -182 -169 -182zM172 938v-30c0 -13 -9 -22 -21 -22h-32
c-12 0 -21 9 -21 22v30c0 12 9 21 21 21h32c12 0 21 -9 21 -21zM370 938v-30c0 -13 -9 -22 -22 -22h-31c-12 0 -22 9 -22 22v30c0 12 10 21 22 21h31c13 0 22 -9 22 -21z" />
    <glyph glyph-name="Udieresis" unicode="&#xdc;" 
d="M134 804v-613c0 -91 35 -134 100 -134c62 0 100 38 100 134v613c0 11 11 21 22 21h27c11 0 20 -10 20 -21v-625c0 -129 -69 -186 -169 -186c-102 0 -169 59 -169 185v626c0 11 11 21 22 21h25c13 0 22 -10 22 -21zM172 938v-30c0 -13 -9 -22 -21 -22h-32
c-12 0 -21 9 -21 22v30c0 12 9 21 21 21h32c12 0 21 -9 21 -21zM370 938v-30c0 -13 -9 -22 -22 -22h-31c-12 0 -22 9 -22 22v30c0 12 10 21 22 21h31c13 0 22 -9 22 -21z" />
    <glyph glyph-name="aacute" unicode="&#xe1;" horiz-adv-x="453" 
d="M126 186v-4c0 -86 39 -125 98 -125c34 0 61 11 77 34c14 19 21 46 21 88v98c0 11 -6 19 -21 19h-74c-34 0 -57 -9 -72 -24c-20 -19 -29 -49 -29 -86zM213 -5c-99 0 -156 78 -156 182v11c0 40 10 83 33 114c26 34 64 58 128 58h83c12 0 21 8 21 21v72
c0 85 -40 125 -98 125c-57 0 -98 -40 -98 -113v-7c0 -12 -10 -21 -22 -21h-25c-12 0 -21 9 -21 21v7c0 108 67 177 166 177c102 0 166 -64 166 -185v-428c0 -15 -10 -28 -30 -28c-10 0 -18 4 -25 11l-2 2c-6 6 -11 8 -18 8c-8 0 -23 -9 -34 -13c-19 -7 -43 -14 -68 -14z
M300 786l-113 -95c-9 -8 -16 -9 -21 -9c-12 0 -21 11 -21 22c0 8 3 13 13 25l59 74c14 17 26 22 46 22h23c13 0 22 -11 22 -21c0 -6 -2 -13 -8 -18z" />
    <glyph glyph-name="agrave" unicode="&#xe0;" horiz-adv-x="453" 
d="M126 186v-4c0 -86 39 -125 98 -125c34 0 61 11 77 34c14 19 21 46 21 88v98c0 11 -6 19 -21 19h-74c-34 0 -57 -9 -72 -24c-20 -19 -29 -49 -29 -86zM213 -5c-99 0 -156 78 -156 182v11c0 40 10 83 33 114c26 34 64 58 128 58h83c12 0 21 8 21 21v72
c0 85 -40 125 -98 125c-57 0 -98 -40 -98 -113v-7c0 -12 -10 -21 -22 -21h-25c-12 0 -21 9 -21 21v7c0 108 67 177 166 177c102 0 166 -64 166 -185v-428c0 -15 -10 -28 -30 -28c-10 0 -18 4 -25 11l-2 2c-6 6 -11 8 -18 8c-8 0 -23 -9 -34 -13c-19 -7 -43 -14 -68 -14z
M267 691l-113 95c-6 5 -8 12 -8 18c0 10 9 21 22 21h23c20 0 32 -5 46 -22l59 -74c10 -12 13 -17 13 -25c0 -11 -9 -22 -21 -22c-5 0 -12 1 -21 9z" />
    <glyph glyph-name="acircumflex" unicode="&#xe2;" horiz-adv-x="453" 
d="M126 186v-4c0 -86 39 -125 98 -125c34 0 61 11 77 34c14 19 21 46 21 88v98c0 11 -6 19 -21 19h-74c-34 0 -57 -9 -72 -24c-20 -19 -29 -49 -29 -86zM213 -5c-99 0 -156 78 -156 182v11c0 40 10 83 33 114c26 34 64 58 128 58h83c12 0 21 8 21 21v72
c0 85 -40 125 -98 125c-57 0 -98 -40 -98 -113v-7c0 -12 -10 -21 -22 -21h-25c-12 0 -21 9 -21 21v7c0 108 67 177 166 177c102 0 166 -64 166 -185v-428c0 -15 -10 -28 -30 -28c-10 0 -18 4 -25 11l-2 2c-6 6 -11 8 -18 8c-8 0 -23 -9 -34 -13c-19 -7 -43 -14 -68 -14z
M291 695l-46 41c-8 7 -15 10 -22 10s-16 -3 -23 -10l-46 -41c-5 -4 -12 -8 -18 -8c-14 0 -23 10 -23 22c0 6 4 12 13 23l73 87c7 8 14 13 24 13s16 -5 23 -13l74 -87c9 -11 13 -17 13 -23c0 -12 -9 -22 -24 -22c-6 0 -13 4 -18 8z" />
    <glyph glyph-name="adieresis" unicode="&#xe4;" horiz-adv-x="453" 
d="M126 186v-4c0 -86 39 -125 98 -125c34 0 61 11 77 34c14 19 21 46 21 88v98c0 11 -6 19 -21 19h-74c-34 0 -57 -9 -72 -24c-20 -19 -29 -49 -29 -86zM213 -5c-99 0 -156 78 -156 182v11c0 40 10 83 33 114c26 34 64 58 128 58h83c12 0 21 8 21 21v72
c0 85 -40 125 -98 125c-57 0 -98 -40 -98 -113v-7c0 -12 -10 -21 -22 -21h-25c-12 0 -21 9 -21 21v7c0 108 67 177 166 177c102 0 166 -64 166 -185v-428c0 -15 -10 -28 -30 -28c-10 0 -18 4 -25 11l-2 2c-6 6 -11 8 -18 8c-8 0 -23 -9 -34 -13c-19 -7 -43 -14 -68 -14z
M161 774v-30c0 -13 -9 -22 -21 -22h-32c-12 0 -21 9 -21 22v30c0 12 9 21 21 21h32c12 0 21 -9 21 -21zM359 774v-30c0 -13 -9 -22 -21 -22h-32c-12 0 -22 9 -22 22v30c0 12 10 21 22 21h32c12 0 21 -9 21 -21z" />
    <glyph glyph-name="atilde" unicode="&#xe3;" horiz-adv-x="453" 
d="M126 186v-4c0 -86 39 -125 98 -125c34 0 61 11 77 34c14 19 21 46 21 88v98c0 11 -6 19 -21 19h-74c-34 0 -57 -9 -72 -24c-20 -19 -29 -49 -29 -86zM213 -5c-99 0 -156 78 -156 182v11c0 40 10 83 33 114c26 34 64 58 128 58h83c12 0 21 8 21 21v72
c0 85 -40 125 -98 125c-57 0 -98 -40 -98 -113v-7c0 -12 -10 -21 -22 -21h-25c-12 0 -21 9 -21 21v7c0 108 67 177 166 177c102 0 166 -64 166 -185v-428c0 -15 -10 -28 -30 -28c-10 0 -18 4 -25 11l-2 2c-6 6 -11 8 -18 8c-8 0 -23 -9 -34 -13c-19 -7 -43 -14 -68 -14z
M209 730l-10 9c-10 9 -15 13 -25 13s-18 -7 -21 -18l-2 -8c-3 -10 -12 -18 -25 -18c-12 0 -23 10 -23 25c0 39 42 77 76 77c24 0 42 -6 60 -21l10 -9c10 -9 15 -13 24 -13c10 0 19 7 22 18l2 8c3 10 11 18 23 18s24 -10 24 -24c0 -40 -39 -78 -74 -78c-23 0 -44 6 -61 21z
" />
    <glyph glyph-name="aring" unicode="&#xe5;" horiz-adv-x="453" 
d="M126 186v-4c0 -86 39 -125 98 -125c34 0 61 11 77 34c14 19 21 46 21 88v98c0 11 -6 19 -21 19h-74c-34 0 -57 -9 -72 -24c-20 -19 -29 -49 -29 -86zM213 -5c-99 0 -156 78 -156 182v11c0 40 10 83 33 114c26 34 64 58 128 58h83c12 0 21 8 21 21v72
c0 85 -40 125 -98 125c-57 0 -98 -40 -98 -113v-7c0 -12 -10 -21 -22 -21h-25c-12 0 -21 9 -21 21v7c0 108 67 177 166 177c102 0 166 -64 166 -185v-428c0 -15 -10 -28 -30 -28c-10 0 -18 4 -25 11l-2 2c-6 6 -11 8 -18 8c-8 0 -23 -9 -34 -13c-19 -7 -43 -14 -68 -14z
M195 756c0 -15 13 -27 28 -27s29 12 29 27c0 16 -14 28 -29 28s-28 -12 -28 -28zM147 756c0 41 34 76 76 76s77 -35 77 -76s-35 -75 -77 -75s-76 34 -76 75z" />
    <glyph glyph-name="ccedilla" unicode="&#xe7;" horiz-adv-x="448" 
d="M230 578c-64 0 -100 -42 -100 -133v-255c0 -98 39 -133 100 -133c72 0 98 56 98 117v3c0 12 10 21 21 21h25c12 0 21 -9 21 -21v-8c0 -84 -41 -176 -165 -176c-99 0 -167 56 -167 185v279c0 125 70 185 167 185c122 0 165 -92 165 -176v-8c0 -12 -9 -21 -21 -21h-26
c-11 0 -20 9 -20 21v3c0 71 -34 117 -98 117zM294 -99c0 -46 -35 -72 -80 -72c-9 0 -20 1 -29 3c-12 3 -21 9 -21 22c0 22 15 20 36 21c20 1 30 12 30 26s-10 25 -30 26c-21 1 -36 -1 -36 21c0 12 8 18 19 21c9 3 21 4 31 4c45 0 80 -26 80 -72z" />
    <glyph glyph-name="eacute" unicode="&#xe9;" horiz-adv-x="457" 
d="M130 444v-65c0 -15 7 -20 21 -20h155c13 0 22 7 22 21v66c0 94 -41 132 -99 132c-64 0 -99 -43 -99 -134zM395 178v-5c0 -124 -64 -180 -166 -180c-107 0 -166 73 -166 184v280c0 120 66 185 166 185c101 0 166 -62 166 -186v-138c0 -11 -11 -21 -21 -21h-223
c-13 0 -21 -7 -21 -20v-85c0 -91 35 -135 99 -135c65 0 99 44 99 117v4c0 11 10 20 21 20h25c11 0 21 -9 21 -20zM304 786l-113 -95c-9 -8 -16 -9 -21 -9c-12 0 -21 11 -21 22c0 8 3 13 13 25l59 74c14 17 26 22 46 22h23c13 0 22 -11 22 -21c0 -6 -2 -13 -8 -18z" />
    <glyph glyph-name="egrave" unicode="&#xe8;" horiz-adv-x="457" 
d="M130 444v-65c0 -15 7 -20 21 -20h155c13 0 22 7 22 21v66c0 94 -41 132 -99 132c-64 0 -99 -43 -99 -134zM395 178v-5c0 -124 -64 -180 -166 -180c-107 0 -166 73 -166 184v280c0 120 66 185 166 185c101 0 166 -62 166 -186v-138c0 -11 -11 -21 -21 -21h-223
c-13 0 -21 -7 -21 -20v-85c0 -91 35 -135 99 -135c65 0 99 44 99 117v4c0 11 10 20 21 20h25c11 0 21 -9 21 -20zM261 691l-113 95c-6 5 -8 12 -8 18c0 10 9 21 22 21h23c20 0 32 -5 46 -22l59 -74c10 -12 13 -17 13 -25c0 -11 -9 -22 -21 -22c-5 0 -12 1 -21 9z" />
    <glyph glyph-name="ecircumflex" unicode="&#xea;" horiz-adv-x="457" 
d="M130 444v-65c0 -15 7 -20 21 -20h155c13 0 22 7 22 21v66c0 94 -41 132 -99 132c-64 0 -99 -43 -99 -134zM395 178v-5c0 -124 -64 -180 -166 -180c-107 0 -166 73 -166 184v280c0 120 66 185 166 185c101 0 166 -62 166 -186v-138c0 -11 -11 -21 -21 -21h-223
c-13 0 -21 -7 -21 -20v-85c0 -91 35 -135 99 -135c65 0 99 44 99 117v4c0 11 10 20 21 20h25c11 0 21 -9 21 -20zM297 695l-46 41c-8 7 -15 10 -22 10s-16 -3 -23 -10l-46 -41c-5 -4 -12 -8 -18 -8c-14 0 -23 10 -23 22c0 6 4 12 13 23l73 87c7 8 14 13 24 13s16 -5 23 -13
l74 -87c9 -11 13 -17 13 -23c0 -12 -9 -22 -24 -22c-6 0 -13 4 -18 8z" />
    <glyph glyph-name="edieresis" unicode="&#xeb;" horiz-adv-x="457" 
d="M130 444v-65c0 -15 7 -20 21 -20h155c13 0 22 7 22 21v66c0 94 -41 132 -99 132c-64 0 -99 -43 -99 -134zM395 178v-5c0 -124 -64 -180 -166 -180c-107 0 -166 73 -166 184v280c0 120 66 185 166 185c101 0 166 -62 166 -186v-138c0 -11 -11 -21 -21 -21h-223
c-13 0 -21 -7 -21 -20v-85c0 -91 35 -135 99 -135c65 0 99 44 99 117v4c0 11 10 20 21 20h25c11 0 21 -9 21 -20zM167 774v-30c0 -13 -9 -22 -21 -22h-32c-12 0 -21 9 -21 22v30c0 12 9 21 21 21h32c12 0 21 -9 21 -21zM365 774v-30c0 -13 -9 -22 -21 -22h-32
c-12 0 -22 9 -22 22v30c0 12 10 21 22 21h32c12 0 21 -9 21 -21z" />
    <glyph glyph-name="iacute" unicode="&#xed;" horiz-adv-x="223" 
d="M231 786l-113 -95c-9 -8 -16 -9 -21 -9c-12 0 -21 11 -21 22c0 8 3 13 13 25l59 74c14 17 26 22 46 22h23c13 0 22 -11 22 -21c0 -6 -2 -13 -8 -18zM78 21v593c0 12 10 21 22 21h23c13 0 22 -9 22 -21v-593c0 -12 -9 -21 -22 -21h-23c-12 0 -22 9 -22 21z" />
    <glyph glyph-name="igrave" unicode="&#xec;" horiz-adv-x="223" 
d="M106 691l-113 95c-6 5 -8 12 -8 18c0 10 9 21 22 21h23c20 0 32 -5 46 -22l59 -74c10 -12 13 -17 13 -25c0 -11 -9 -22 -21 -22c-5 0 -12 1 -21 9zM78 21v593c0 12 10 21 22 21h23c13 0 22 -9 22 -21v-593c0 -12 -9 -21 -22 -21h-23c-12 0 -22 9 -22 21z" />
    <glyph glyph-name="icircumflex" unicode="&#xee;" horiz-adv-x="223" 
d="M179 695l-46 41c-8 7 -15 10 -22 10s-16 -3 -23 -10l-46 -41c-5 -4 -12 -8 -18 -8c-14 0 -23 10 -23 22c0 6 4 12 13 23l73 87c7 8 14 13 24 13s16 -5 23 -13l74 -87c9 -11 13 -17 13 -23c0 -12 -9 -22 -24 -22c-6 0 -13 4 -18 8zM78 21v593c0 12 10 21 22 21h23
c13 0 22 -9 22 -21v-593c0 -12 -9 -21 -22 -21h-23c-12 0 -22 9 -22 21z" />
    <glyph glyph-name="idieresis" unicode="&#xef;" horiz-adv-x="223" 
d="M78 781v-28c0 -12 -9 -21 -20 -21h-30c-11 0 -20 9 -20 21v28c0 11 9 20 20 20h30c11 0 20 -9 20 -20zM215 781v-28c0 -12 -9 -21 -20 -21h-30c-11 0 -20 9 -20 21v28c0 11 9 20 20 20h30c11 0 20 -9 20 -20zM78 21v593c0 12 10 21 22 21h23c13 0 22 -9 22 -21v-593
c0 -12 -9 -21 -22 -21h-23c-12 0 -22 9 -22 21z" />
    <glyph glyph-name="ntilde" unicode="&#xf1;" horiz-adv-x="458" 
d="M351 595c26 -28 44 -69 44 -138v-437c0 -11 -9 -20 -20 -20h-27c-11 0 -20 9 -20 20v424c0 48 -8 83 -29 106c-18 19 -44 28 -70 28c-27 0 -52 -8 -72 -27c-21 -23 -27 -59 -27 -107v-424c0 -11 -9 -20 -22 -20h-24c-11 0 -21 9 -21 20v587c0 15 11 28 30 28
c10 0 18 -4 26 -11l2 -2c6 -6 10 -8 17 -8c8 0 23 9 35 13c18 7 42 15 67 15c42 0 80 -14 111 -47zM215 730l-10 9c-10 9 -15 13 -25 13s-18 -7 -21 -18l-2 -8c-3 -10 -12 -18 -25 -18c-12 0 -23 10 -23 25c0 39 42 77 76 77c24 0 42 -6 60 -21l10 -9c10 -9 15 -13 24 -13
c10 0 19 7 22 18l2 8c3 10 11 18 23 18s24 -10 24 -24c0 -40 -39 -78 -74 -78c-23 0 -44 6 -61 21z" />
    <glyph glyph-name="oacute" unicode="&#xf3;" horiz-adv-x="458" 
d="M229 57c60 0 99 42 99 125v271c0 83 -39 125 -99 125s-99 -42 -99 -125v-271c0 -83 39 -125 99 -125zM229 -7c-102 0 -166 63 -166 185v279c0 122 64 185 166 185s166 -63 166 -185v-279c0 -122 -64 -185 -166 -185zM313 786l-113 -95c-9 -8 -16 -9 -21 -9
c-12 0 -21 11 -21 22c0 8 3 13 13 25l59 74c14 17 26 22 46 22h23c13 0 22 -11 22 -21c0 -6 -2 -13 -8 -18z" />
    <glyph glyph-name="ograve" unicode="&#xf2;" horiz-adv-x="458" 
d="M229 57c60 0 99 42 99 125v271c0 83 -39 125 -99 125s-99 -42 -99 -125v-271c0 -83 39 -125 99 -125zM229 -7c-102 0 -166 63 -166 185v279c0 122 64 185 166 185s166 -63 166 -185v-279c0 -122 -64 -185 -166 -185zM259 691l-113 95c-6 5 -8 12 -8 18c0 10 9 21 22 21
h23c20 0 32 -5 46 -22l59 -74c10 -12 13 -17 13 -25c0 -11 -9 -22 -21 -22c-5 0 -12 1 -21 9z" />
    <glyph glyph-name="ocircumflex" unicode="&#xf4;" horiz-adv-x="458" 
d="M229 57c60 0 99 42 99 125v271c0 83 -39 125 -99 125s-99 -42 -99 -125v-271c0 -83 39 -125 99 -125zM229 -7c-102 0 -166 63 -166 185v279c0 122 64 185 166 185s166 -63 166 -185v-279c0 -122 -64 -185 -166 -185zM297 695l-46 41c-8 7 -15 10 -22 10s-16 -3 -23 -10
l-46 -41c-5 -4 -12 -8 -18 -8c-14 0 -23 10 -23 22c0 6 4 12 13 23l73 87c7 8 14 13 24 13s16 -5 23 -13l74 -87c9 -11 13 -17 13 -23c0 -12 -9 -22 -24 -22c-6 0 -13 4 -18 8z" />
    <glyph glyph-name="odieresis" unicode="&#xf6;" horiz-adv-x="458" 
d="M229 57c60 0 99 42 99 125v271c0 83 -39 125 -99 125s-99 -42 -99 -125v-271c0 -83 39 -125 99 -125zM229 -7c-102 0 -166 63 -166 185v279c0 122 64 185 166 185s166 -63 166 -185v-279c0 -122 -64 -185 -166 -185zM167 774v-30c0 -13 -9 -22 -21 -22h-32
c-12 0 -21 9 -21 22v30c0 12 9 21 21 21h32c12 0 21 -9 21 -21zM365 774v-30c0 -13 -9 -22 -21 -22h-32c-12 0 -22 9 -22 22v30c0 12 10 21 22 21h32c12 0 21 -9 21 -21z" />
    <glyph glyph-name="otilde" unicode="&#xf5;" horiz-adv-x="458" 
d="M229 57c60 0 99 42 99 125v271c0 83 -39 125 -99 125s-99 -42 -99 -125v-271c0 -83 39 -125 99 -125zM229 -7c-102 0 -166 63 -166 185v279c0 122 64 185 166 185s166 -63 166 -185v-279c0 -122 -64 -185 -166 -185zM215 730l-10 9c-10 9 -15 13 -25 13s-18 -7 -21 -18
l-2 -8c-3 -10 -12 -18 -25 -18c-12 0 -23 10 -23 25c0 39 42 77 76 77c24 0 42 -6 60 -21l10 -9c10 -9 15 -13 24 -13c10 0 19 7 22 18l2 8c3 10 11 18 23 18s24 -10 24 -24c0 -40 -39 -78 -74 -78c-23 0 -44 6 -61 21z" />
    <glyph glyph-name="uacute" unicode="&#xfa;" horiz-adv-x="458" 
d="M107 40c-26 28 -44 69 -44 138v437c0 11 9 20 20 20h27c11 0 20 -9 20 -20v-424c0 -48 8 -83 29 -106c18 -19 44 -28 70 -28c27 0 52 8 72 27c21 23 27 59 27 107v424c0 11 9 20 22 20h24c11 0 21 -9 21 -20v-587c0 -15 -11 -28 -30 -28c-10 0 -18 4 -26 11l-2 2
c-6 6 -10 8 -17 8c-8 0 -23 -9 -35 -13c-18 -7 -42 -15 -67 -15c-42 0 -80 14 -111 47zM303 786l-113 -95c-9 -8 -16 -9 -21 -9c-12 0 -21 11 -21 22c0 8 3 13 13 25l59 74c14 17 26 22 46 22h23c13 0 22 -11 22 -21c0 -6 -2 -13 -8 -18z" />
    <glyph glyph-name="ugrave" unicode="&#xf9;" horiz-adv-x="458" 
d="M107 40c-26 28 -44 69 -44 138v437c0 11 9 20 20 20h27c11 0 20 -9 20 -20v-424c0 -48 8 -83 29 -106c18 -19 44 -28 70 -28c27 0 52 8 72 27c21 23 27 59 27 107v424c0 11 9 20 22 20h24c11 0 21 -9 21 -20v-587c0 -15 -11 -28 -30 -28c-10 0 -18 4 -26 11l-2 2
c-6 6 -10 8 -17 8c-8 0 -23 -9 -35 -13c-18 -7 -42 -15 -67 -15c-42 0 -80 14 -111 47zM269 691l-113 95c-6 5 -8 12 -8 18c0 10 9 21 22 21h23c20 0 32 -5 46 -22l59 -74c10 -12 13 -17 13 -25c0 -11 -9 -22 -21 -22c-5 0 -12 1 -21 9z" />
    <glyph glyph-name="ucircumflex" unicode="&#xfb;" horiz-adv-x="458" 
d="M107 40c-26 28 -44 69 -44 138v437c0 11 9 20 20 20h27c11 0 20 -9 20 -20v-424c0 -48 8 -83 29 -106c18 -19 44 -28 70 -28c27 0 52 8 72 27c21 23 27 59 27 107v424c0 11 9 20 22 20h24c11 0 21 -9 21 -20v-587c0 -15 -11 -28 -30 -28c-10 0 -18 4 -26 11l-2 2
c-6 6 -10 8 -17 8c-8 0 -23 -9 -35 -13c-18 -7 -42 -15 -67 -15c-42 0 -80 14 -111 47zM297 695l-46 41c-8 7 -15 10 -22 10s-16 -3 -23 -10l-46 -41c-5 -4 -12 -8 -18 -8c-14 0 -23 10 -23 22c0 6 4 12 13 23l73 87c7 8 14 13 24 13s16 -5 23 -13l74 -87
c9 -11 13 -17 13 -23c0 -12 -9 -22 -24 -22c-6 0 -13 4 -18 8z" />
    <glyph glyph-name="udieresis" unicode="&#xfc;" horiz-adv-x="458" 
d="M107 40c-26 28 -44 69 -44 138v437c0 11 9 20 20 20h27c11 0 20 -9 20 -20v-424c0 -48 8 -83 29 -106c18 -19 44 -28 70 -28c27 0 52 8 72 27c21 23 27 59 27 107v424c0 11 9 20 22 20h24c11 0 21 -9 21 -20v-587c0 -15 -11 -28 -30 -28c-10 0 -18 4 -26 11l-2 2
c-6 6 -10 8 -17 8c-8 0 -23 -9 -35 -13c-18 -7 -42 -15 -67 -15c-42 0 -80 14 -111 47zM167 774v-30c0 -13 -9 -22 -21 -22h-32c-12 0 -21 9 -21 22v30c0 12 9 21 21 21h32c12 0 21 -9 21 -21zM365 774v-30c0 -13 -9 -22 -21 -22h-32c-12 0 -22 9 -22 22v30
c0 12 10 21 22 21h32c12 0 21 -9 21 -21z" />
    <glyph glyph-name="circumflex.case" 
d="M301 885l-46 41c-8 7 -15 10 -22 10s-16 -3 -23 -10l-46 -41c-5 -4 -12 -8 -18 -8c-14 0 -23 10 -23 22c0 6 4 12 13 23l73 87c7 8 14 13 24 13s16 -5 23 -13l74 -87c9 -11 13 -17 13 -23c0 -12 -9 -22 -24 -22c-6 0 -13 4 -18 8z" />
    <glyph glyph-name="caron.case" 
d="M165 1014l46 -41c8 -7 16 -10 23 -10s15 3 22 10l46 41c5 4 12 8 18 8c15 0 24 -10 24 -22c0 -6 -4 -12 -13 -23l-74 -87c-7 -8 -13 -13 -23 -13s-17 5 -24 13l-73 87c-9 11 -13 17 -13 23c0 12 9 22 23 22c6 0 13 -4 18 -8z" />
    <glyph glyph-name="breve.case" 
d="M233 880c-50 0 -98 33 -98 92c0 31 5 49 28 49c7 0 13 -3 17 -8s6 -13 6 -22v-5c0 -29 22 -46 47 -46c26 0 47 17 47 46v5c0 9 2 17 6 22s11 8 18 8c22 0 27 -18 27 -49c0 -59 -46 -92 -98 -92z" />
    <glyph glyph-name="dotaccent.case" 
d="M196 911v33c0 12 9 21 21 21h32c12 0 21 -9 21 -21v-33c0 -12 -9 -21 -21 -21h-32c-12 0 -21 9 -21 21z" />
    <glyph glyph-name="ring.case" 
d="M207 946c0 -15 12 -27 27 -27c16 0 29 12 29 27c0 16 -13 28 -29 28c-15 0 -27 -12 -27 -28zM159 946c0 41 33 76 75 76c43 0 77 -35 77 -76s-34 -75 -77 -75c-42 0 -75 34 -75 75z" />
    <glyph glyph-name="tilde.case" 
d="M220 917l-10 9c-10 9 -15 13 -25 13s-18 -7 -21 -18l-2 -8c-3 -10 -12 -18 -25 -18c-12 0 -23 10 -23 25c0 39 42 77 76 77c24 0 41 -6 59 -21l10 -9c10 -9 15 -13 24 -13c10 0 19 7 22 18l2 8c3 10 11 18 23 18s24 -10 24 -24c0 -40 -39 -78 -74 -78c-23 0 -43 6 -60 21
z" />
    <glyph glyph-name="hungarumlaut.case" 
d="M418 981l-120 -96c-5 -4 -11 -8 -18 -8c-14 0 -23 10 -23 22c0 6 2 12 12 23l69 80c14 16 21 20 42 20h26c13 0 22 -11 22 -21c0 -7 -2 -13 -10 -20zM275 981l-120 -96c-5 -4 -11 -8 -17 -8c-15 0 -24 10 -24 22c0 6 2 12 12 23l69 80c14 16 21 20 43 20h25
c13 0 23 -11 23 -21c0 -7 -2 -13 -11 -20z" />
    <glyph glyph-name="caron.salt" 
d="M205 800v3c0 15 8 22 23 22h22c16 0 23 -7 23 -22v-5c0 -47 -25 -106 -44 -129c-8 -10 -22 -23 -34 -23s-23 8 -23 22c0 8 4 16 9 26l5 11c10 22 19 52 19 95z" />
    <glyph glyph-name="grave.case" 
d="M287 881l-136 98c-8 5 -10 12 -10 18c0 10 9 21 22 21h32c22 0 28 -3 42 -18l73 -78c13 -14 16 -17 16 -26c0 -11 -9 -21 -21 -21c-5 0 -12 2 -18 6z" />
    <glyph glyph-name="acute.case" 
d="M317 979l-137 -98c-6 -4 -12 -6 -17 -6c-12 0 -22 10 -22 21c0 9 4 12 17 26l72 78c14 15 21 18 42 18h33c13 0 21 -11 21 -21c0 -6 -2 -13 -9 -18z" />
    <glyph glyph-name="dieresis.case" 
d="M172 938v-30c0 -13 -9 -22 -21 -22h-32c-12 0 -21 9 -21 22v30c0 12 9 21 21 21h32c12 0 21 -9 21 -21zM370 938v-30c0 -13 -9 -22 -22 -22h-31c-12 0 -22 9 -22 22v30c0 12 10 21 22 21h31c13 0 22 -9 22 -21z" />
    <glyph glyph-name="uni02C9" unicode="&#x2c9;" 
d="M129 950h209c13 0 22 -8 22 -20v-16c0 -12 -9 -20 -22 -20h-209c-12 0 -21 8 -21 20v16c0 12 9 20 21 20z" />
    <glyph glyph-name="macron.case" 
d="M129 950h209c13 0 22 -8 22 -20v-16c0 -12 -9 -20 -22 -20h-209c-12 0 -21 8 -21 20v16c0 12 9 20 21 20z" />
    <glyph glyph-name="commaaccent.salt" horiz-adv-x="549" 
d="M243 687h-10c-14 0 -24 10 -24 22c0 50 30 100 71 119c7 3 13 4 18 4c13 0 24 -8 24 -24c0 -12 -8 -19 -17 -26c-25 -22 -37 -36 -37 -69v-4c0 -12 -10 -22 -25 -22z" />
    <glyph glyph-name="Amacron" unicode="&#x100;" 
d="M134 634v-192c0 -13 11 -22 21 -22h157c13 0 22 10 22 22v192c0 90 -35 134 -100 134s-100 -44 -100 -134zM403 649v-628c0 -11 -10 -21 -21 -21h-27c-11 0 -21 10 -21 21v313c0 12 -8 22 -22 22h-157c-10 0 -21 -9 -21 -22v-313c0 -11 -9 -21 -22 -21h-25
c-11 0 -22 10 -22 21v628c0 129 76 183 169 183s169 -54 169 -183zM129 950h209c13 0 22 -8 22 -20v-16c0 -12 -9 -20 -22 -20h-209c-12 0 -21 8 -21 20v16c0 12 9 20 21 20z" />
    <glyph glyph-name="amacron" unicode="&#x101;" horiz-adv-x="451" 
d="M126 186v-4c0 -86 39 -125 98 -125c34 0 61 11 77 34c14 19 21 46 21 88v98c0 11 -6 19 -21 19h-74c-34 0 -57 -9 -72 -24c-20 -19 -29 -49 -29 -86zM213 -5c-99 0 -156 78 -156 182v11c0 40 10 83 33 114c26 34 64 58 128 58h83c12 0 21 8 21 21v72
c0 85 -40 125 -98 125c-57 0 -98 -40 -98 -113v-7c0 -12 -10 -21 -22 -21h-25c-12 0 -21 9 -21 21v7c0 108 67 177 166 177c102 0 166 -64 166 -185v-428c0 -15 -10 -28 -30 -28c-10 0 -18 4 -25 11l-2 2c-6 6 -11 8 -18 8c-8 0 -23 -9 -34 -13c-19 -7 -43 -14 -68 -14z
M124 783h209c13 0 22 -8 22 -20v-16c0 -12 -9 -20 -22 -20h-209c-12 0 -21 8 -21 20v16c0 12 9 20 21 20z" />
    <glyph glyph-name="Abreve" unicode="&#x102;" 
d="M134 634v-192c0 -13 11 -22 21 -22h157c13 0 22 10 22 22v192c0 90 -35 134 -100 134s-100 -44 -100 -134zM403 649v-628c0 -11 -10 -21 -21 -21h-27c-11 0 -21 10 -21 21v313c0 12 -8 22 -22 22h-157c-10 0 -21 -9 -21 -22v-313c0 -11 -9 -21 -22 -21h-25
c-11 0 -22 10 -22 21v628c0 129 76 183 169 183s169 -54 169 -183zM234 880c-50 0 -98 33 -98 92c0 31 5 49 28 49c7 0 13 -3 17 -8s6 -13 6 -22v-5c0 -29 22 -46 47 -46c26 0 47 17 47 46v5c0 9 2 17 6 22s11 8 18 8c22 0 27 -18 27 -49c0 -59 -46 -92 -98 -92z" />
    <glyph glyph-name="abreve" unicode="&#x103;" horiz-adv-x="453" 
d="M126 186v-4c0 -86 39 -125 98 -125c34 0 61 11 77 34c14 19 21 46 21 88v98c0 11 -6 19 -21 19h-74c-34 0 -57 -9 -72 -24c-20 -19 -29 -49 -29 -86zM213 -5c-99 0 -156 78 -156 182v11c0 40 10 83 33 114c26 34 64 58 128 58h83c12 0 21 8 21 21v72
c0 85 -40 125 -98 125c-57 0 -98 -40 -98 -113v-7c0 -12 -10 -21 -22 -21h-25c-12 0 -21 9 -21 21v7c0 108 67 177 166 177c102 0 166 -64 166 -185v-428c0 -15 -10 -28 -30 -28c-10 0 -18 4 -25 11l-2 2c-6 6 -11 8 -18 8c-8 0 -23 -9 -34 -13c-19 -7 -43 -14 -68 -14z
M229 691c-50 0 -98 33 -98 92c0 31 5 49 28 49c7 0 13 -3 17 -8s6 -13 6 -22v-5c0 -29 22 -46 47 -46c26 0 47 17 47 46v5c0 9 2 17 6 22s11 8 18 8c22 0 27 -18 27 -49c0 -59 -46 -92 -98 -92z" />
    <glyph glyph-name="Aogonek" unicode="&#x104;" 
d="M134 634v-192c0 -13 11 -22 21 -22h157c13 0 22 10 22 22v192c0 90 -35 134 -100 134s-100 -44 -100 -134zM350 -164c-42 0 -83 21 -83 66c0 16 5 41 39 72l12 11c13 11 16 22 16 37v312c0 12 -8 22 -22 22h-157c-10 0 -21 -9 -21 -22v-313c0 -11 -9 -21 -22 -21h-25
c-11 0 -22 10 -22 21v628c0 129 76 183 169 183s169 -54 169 -183v-624c0 -20 -7 -34 -29 -53l-19 -16c-15 -14 -21 -27 -21 -40s13 -23 24 -23c10 0 18 9 29 9c16 0 24 -11 24 -24c0 -28 -33 -42 -61 -42z" />
    <glyph glyph-name="aogonek" unicode="&#x105;" horiz-adv-x="453" 
d="M126 186v-4c0 -86 39 -125 98 -125c34 0 61 11 77 34c14 19 21 46 21 88v98c0 11 -6 19 -21 19h-74c-34 0 -57 -9 -72 -24c-20 -19 -29 -49 -29 -86zM390 457v-432c0 -20 -6 -34 -29 -53l-18 -16c-15 -14 -23 -22 -23 -37s14 -25 26 -25c9 0 17 10 28 10s22 -9 22 -22
c0 -14 -16 -45 -62 -45c-43 0 -75 24 -75 65c0 46 37 57 37 79c0 12 -10 21 -22 21c-6 0 -11 -1 -20 -3s-22 -4 -41 -4c-99 0 -156 78 -156 182v11c0 40 10 83 33 114c26 34 64 58 128 58h83c12 0 21 8 21 21v72c0 85 -40 125 -98 125c-57 0 -98 -40 -98 -113v-17
c0 -12 -10 -21 -22 -21h-25c-12 0 -21 9 -21 21v17c0 114 67 177 166 177c102 0 166 -64 166 -185z" />
    <glyph glyph-name="Cacute" unicode="&#x106;" horiz-adv-x="462" 
d="M65 175v474c0 122 67 183 169 183c110 0 169 -73 169 -183v-60c0 -11 -10 -21 -21 -21h-27c-11 0 -21 10 -21 21v45c0 92 -36 134 -100 134c-65 0 -100 -44 -100 -134v-443c0 -90 33 -134 100 -134c64 0 100 42 100 134v42c0 12 10 21 21 21h27c11 0 21 -9 21 -21v-58
c0 -119 -65 -182 -169 -182s-169 64 -169 182zM318 979l-137 -98c-6 -4 -12 -6 -17 -6c-12 0 -22 10 -22 21c0 9 4 12 17 26l72 78c14 15 21 18 42 18h33c13 0 21 -11 21 -21c0 -6 -2 -13 -9 -18z" />
    <glyph glyph-name="cacute" unicode="&#x107;" horiz-adv-x="448" 
d="M230 578c-64 0 -100 -42 -100 -133v-255c0 -98 39 -133 100 -133c72 0 98 56 98 117v3c0 12 10 21 21 21h25c12 0 21 -9 21 -21v-8c0 -84 -41 -176 -165 -176c-99 0 -167 56 -167 185v279c0 125 70 185 167 185c122 0 165 -92 165 -176v-8c0 -12 -9 -21 -21 -21h-26
c-11 0 -20 9 -20 21v3c0 71 -34 117 -98 117zM313 786l-113 -95c-9 -8 -16 -9 -21 -9c-12 0 -21 11 -21 22c0 8 3 13 13 25l59 74c14 17 26 22 46 22h23c13 0 22 -11 22 -21c0 -6 -2 -13 -8 -18z" />
    <glyph glyph-name="Ccircumflex" unicode="&#x108;" horiz-adv-x="462" 
d="M65 175v474c0 122 67 183 169 183c110 0 169 -73 169 -183v-60c0 -11 -10 -21 -21 -21h-27c-11 0 -21 10 -21 21v45c0 92 -36 134 -100 134c-65 0 -100 -44 -100 -134v-443c0 -90 33 -134 100 -134c64 0 100 42 100 134v42c0 12 10 21 21 21h27c11 0 21 -9 21 -21v-58
c0 -119 -65 -182 -169 -182s-169 64 -169 182zM302 885l-46 41c-8 7 -15 10 -22 10s-16 -3 -23 -10l-46 -41c-5 -4 -12 -8 -18 -8c-14 0 -23 10 -23 22c0 6 4 12 13 23l73 87c7 8 14 13 24 13s16 -5 23 -13l74 -87c9 -11 13 -17 13 -23c0 -12 -9 -22 -24 -22
c-6 0 -13 4 -18 8z" />
    <glyph glyph-name="ccircumflex" unicode="&#x109;" horiz-adv-x="448" 
d="M230 578c-64 0 -100 -42 -100 -133v-255c0 -98 39 -133 100 -133c72 0 98 56 98 117v3c0 12 10 21 21 21h25c12 0 21 -9 21 -21v-8c0 -84 -41 -176 -165 -176c-99 0 -167 56 -167 185v279c0 125 70 185 167 185c122 0 165 -92 165 -176v-8c0 -12 -9 -21 -21 -21h-26
c-11 0 -20 9 -20 21v3c0 71 -34 117 -98 117zM297 695l-46 41c-8 7 -15 10 -22 10s-16 -3 -23 -10l-46 -41c-5 -4 -12 -8 -18 -8c-14 0 -23 10 -23 22c0 6 4 12 13 23l73 87c7 8 14 13 24 13s16 -5 23 -13l74 -87c9 -11 13 -17 13 -23c0 -12 -9 -22 -24 -22
c-6 0 -13 4 -18 8z" />
    <glyph glyph-name="Cdotaccent" unicode="&#x10a;" horiz-adv-x="462" 
d="M65 175v474c0 122 67 183 169 183c110 0 169 -73 169 -183v-60c0 -11 -10 -21 -21 -21h-27c-11 0 -21 10 -21 21v45c0 92 -36 134 -100 134c-65 0 -100 -44 -100 -134v-443c0 -90 33 -134 100 -134c64 0 100 42 100 134v42c0 12 10 21 21 21h27c11 0 21 -9 21 -21v-58
c0 -119 -65 -182 -169 -182s-169 64 -169 182zM197 911v33c0 12 9 21 21 21h32c12 0 21 -9 21 -21v-33c0 -12 -9 -21 -21 -21h-32c-12 0 -21 9 -21 21z" />
    <glyph glyph-name="cdotaccent" unicode="&#x10b;" horiz-adv-x="448" 
d="M230 578c-64 0 -100 -42 -100 -133v-255c0 -98 39 -133 100 -133c72 0 98 56 98 117v3c0 12 10 21 21 21h25c12 0 21 -9 21 -21v-8c0 -84 -41 -176 -165 -176c-99 0 -167 56 -167 185v279c0 125 70 185 167 185c122 0 165 -92 165 -176v-8c0 -12 -9 -21 -21 -21h-26
c-11 0 -20 9 -20 21v3c0 71 -34 117 -98 117zM192 771v33c0 12 9 21 21 21h32c12 0 21 -9 21 -21v-33c0 -12 -9 -21 -21 -21h-32c-12 0 -21 9 -21 21z" />
    <glyph glyph-name="Ccaron" unicode="&#x10c;" horiz-adv-x="462" 
d="M65 175v474c0 122 67 183 169 183c110 0 169 -73 169 -183v-60c0 -11 -10 -21 -21 -21h-27c-11 0 -21 10 -21 21v45c0 92 -36 134 -100 134c-65 0 -100 -44 -100 -134v-443c0 -90 33 -134 100 -134c64 0 100 42 100 134v42c0 12 10 21 21 21h27c11 0 21 -9 21 -21v-58
c0 -119 -65 -182 -169 -182s-169 64 -169 182zM165 1014l46 -41c8 -7 16 -10 23 -10s15 3 22 10l46 41c5 4 12 8 18 8c15 0 24 -10 24 -22c0 -6 -4 -12 -13 -23l-74 -87c-7 -8 -13 -13 -23 -13s-17 5 -24 13l-73 87c-9 11 -13 17 -13 23c0 12 9 22 23 22c6 0 13 -4 18 -8z
" />
    <glyph glyph-name="ccaron" unicode="&#x10d;" horiz-adv-x="448" 
d="M230 578c-64 0 -100 -42 -100 -133v-255c0 -98 39 -133 100 -133c72 0 98 56 98 117v3c0 12 10 21 21 21h25c12 0 21 -9 21 -21v-8c0 -84 -41 -176 -165 -176c-99 0 -167 56 -167 185v279c0 125 70 185 167 185c122 0 165 -92 165 -176v-8c0 -12 -9 -21 -21 -21h-26
c-11 0 -20 9 -20 21v3c0 71 -34 117 -98 117zM251 783l46 41c5 4 12 8 18 8c15 0 24 -10 24 -22c0 -6 -4 -12 -13 -23l-74 -87c-7 -8 -13 -13 -23 -13s-17 5 -24 13l-73 87c-9 11 -13 17 -13 23c0 12 9 22 23 22c6 0 13 -4 18 -8l46 -41c7 -7 16 -10 23 -10s14 3 22 10z" />
    <glyph glyph-name="Dcaron" unicode="&#x10e;" 
d="M155 64h82c64 0 97 41 97 133v432c0 91 -31 132 -96 132h-79c-17 0 -25 -6 -25 -22v-653c0 -15 7 -22 21 -22zM234 0h-147c-11 0 -22 9 -22 20v784c0 11 11 21 22 21h148c104 0 168 -64 168 -183v-460c0 -119 -66 -182 -169 -182zM165 1014l46 -41c8 -7 16 -10 23 -10
s15 3 22 10l46 41c5 4 12 8 18 8c15 0 24 -10 24 -22c0 -6 -4 -12 -13 -23l-74 -87c-7 -8 -13 -13 -23 -13s-17 5 -24 13l-73 87c-9 11 -13 17 -13 23c0 12 9 22 23 22c6 0 13 -4 18 -8z" />
    <glyph glyph-name="dcaron" unicode="&#x10f;" horiz-adv-x="596" 
d="M328 178v279c0 79 -31 121 -103 121c-27 0 -55 -12 -71 -34c-15 -21 -24 -51 -24 -96v-266c0 -86 41 -125 99 -125c35 0 60 11 77 34c14 19 22 45 22 87zM219 -6c-100 0 -156 75 -156 182v279c0 61 15 105 41 136c27 33 70 51 114 51c40 0 61 -14 78 -19c3 -1 7 -2 13 -2
c7 0 12 3 15 7s5 9 5 19c0 4 -1 19 -1 28v129c0 12 9 21 22 21h23c12 0 22 -9 22 -21v-775c0 -15 -12 -28 -31 -28c-10 0 -18 4 -26 11l-2 2c-6 6 -10 8 -17 8c-8 0 -23 -9 -35 -13c-18 -7 -42 -15 -65 -15zM506 800v3c0 15 8 22 23 22h22c16 0 23 -7 23 -22v-5
c0 -47 -25 -106 -44 -129c-8 -10 -22 -23 -34 -23s-23 8 -23 22c0 8 4 16 9 26l5 11c10 22 19 52 19 95z" />
    <glyph glyph-name="Dcroat" unicode="&#x110;" 
d="M24 442h17c14 0 24 10 24 23v339c0 11 11 21 22 21h146c102 0 170 -61 170 -188v-450c0 -129 -70 -187 -171 -187h-145c-11 0 -22 9 -22 20v347c0 11 -9 23 -22 23h-19c-13 0 -22 9 -22 21v11c0 11 9 20 22 20zM217 390h-58c-15 0 -25 -9 -25 -23v-281
c0 -13 9 -24 21 -24h80c73 0 99 51 99 117v458c0 75 -26 124 -96 124h-83c-12 0 -21 -10 -21 -23v-273c0 -12 10 -23 23 -23h60c13 0 22 -9 22 -20v-11c0 -12 -9 -21 -22 -21z" />
    <glyph glyph-name="dcroat" unicode="&#x111;" horiz-adv-x="458" 
d="M327 178v279c0 79 -38 121 -102 121c-28 0 -52 -11 -69 -33c-15 -21 -25 -52 -25 -97v-266c0 -86 40 -125 98 -125c34 0 60 11 76 34c14 19 22 45 22 87zM394 709v-680c0 -18 -8 -34 -30 -34c-10 0 -17 5 -25 11l-4 3c-7 5 -14 6 -20 6c-8 0 -14 -3 -29 -9
c-16 -5 -40 -12 -66 -12c-100 0 -157 75 -157 182v279c0 61 16 105 41 136c28 33 70 51 113 51c40 0 61 -11 77 -16c3 -1 7 -2 13 -2c7 0 12 3 16 7c3 4 5 9 5 19c0 4 -1 24 -1 33v26c0 13 -10 20 -22 20h-73c-12 0 -22 8 -22 20v12c0 12 10 20 22 20h73c12 0 22 7 22 20v3
c0 12 9 21 21 21h25c12 0 21 -9 21 -21v-3c0 -12 8 -20 20 -20h27c12 0 21 -8 21 -20v-12c0 -12 -9 -20 -21 -20h-27c-12 0 -20 -8 -20 -20z" />
    <glyph glyph-name="Emacron" unicode="&#x112;" horiz-adv-x="367" 
d="M154 64h143c11 0 21 -10 21 -21v-22c0 -12 -10 -21 -21 -21h-210c-11 0 -22 10 -22 21v783c0 11 11 21 22 21h210c11 0 21 -11 21 -22v-21c0 -11 -9 -21 -21 -21h-143c-13 0 -20 -7 -20 -20v-271c0 -13 7 -20 20 -20h139c12 0 22 -10 22 -21v-21c0 -12 -10 -22 -22 -22
h-139c-13 0 -20 -7 -20 -20v-282c0 -13 7 -20 20 -20zM86 950h209c13 0 22 -8 22 -20v-16c0 -12 -9 -20 -22 -20h-209c-12 0 -21 8 -21 20v16c0 12 9 20 21 20z" />
    <glyph glyph-name="emacron" unicode="&#x113;" horiz-adv-x="457" 
d="M130 444v-65c0 -15 7 -20 21 -20h155c13 0 22 7 22 21v66c0 94 -41 132 -99 132c-64 0 -99 -43 -99 -134zM395 178v-5c0 -124 -64 -180 -166 -180c-107 0 -166 73 -166 184v280c0 120 66 185 166 185c101 0 166 -62 166 -186v-138c0 -11 -11 -21 -21 -21h-223
c-13 0 -21 -7 -21 -20v-85c0 -91 35 -135 99 -135c65 0 99 44 99 117v4c0 11 10 20 21 20h25c11 0 21 -9 21 -20zM124 783h209c13 0 22 -8 22 -20v-16c0 -12 -9 -20 -22 -20h-209c-12 0 -21 8 -21 20v16c0 12 9 20 21 20z" />
    <glyph glyph-name="Ebreve" unicode="&#x114;" horiz-adv-x="367" 
d="M154 64h143c11 0 21 -10 21 -21v-22c0 -12 -10 -21 -21 -21h-210c-11 0 -22 10 -22 21v783c0 11 11 21 22 21h210c11 0 21 -11 21 -22v-21c0 -11 -9 -21 -21 -21h-143c-13 0 -20 -7 -20 -20v-271c0 -13 7 -20 20 -20h139c12 0 22 -10 22 -21v-21c0 -12 -10 -22 -22 -22
h-139c-13 0 -20 -7 -20 -20v-282c0 -13 7 -20 20 -20zM193 880c-50 0 -98 33 -98 92c0 31 5 49 28 49c7 0 13 -3 17 -8s6 -13 6 -22v-5c0 -29 22 -46 47 -46c26 0 47 17 47 46v5c0 9 2 17 6 22s11 8 18 8c22 0 27 -18 27 -49c0 -59 -46 -92 -98 -92z" />
    <glyph glyph-name="ebreve" unicode="&#x115;" horiz-adv-x="457" 
d="M130 444v-65c0 -15 7 -20 21 -20h155c13 0 22 7 22 21v66c0 94 -41 132 -99 132c-64 0 -99 -43 -99 -134zM395 178v-5c0 -124 -64 -180 -166 -180c-107 0 -166 73 -166 184v280c0 120 66 185 166 185c101 0 166 -62 166 -186v-138c0 -11 -11 -21 -21 -21h-223
c-13 0 -21 -7 -21 -20v-85c0 -91 35 -135 99 -135c65 0 99 44 99 117v4c0 11 10 20 21 20h25c11 0 21 -9 21 -20zM229 691c-50 0 -98 33 -98 92c0 31 5 49 28 49c7 0 13 -3 17 -8s6 -13 6 -22v-5c0 -29 22 -46 47 -46c26 0 47 17 47 46v5c0 9 2 17 6 22s11 8 18 8
c22 0 27 -18 27 -49c0 -59 -46 -92 -98 -92z" />
    <glyph glyph-name="Edotaccent" unicode="&#x116;" horiz-adv-x="367" 
d="M154 64h143c11 0 21 -10 21 -21v-22c0 -12 -10 -21 -21 -21h-210c-11 0 -22 10 -22 21v783c0 11 11 21 22 21h210c11 0 21 -11 21 -22v-21c0 -11 -9 -21 -21 -21h-143c-13 0 -20 -7 -20 -20v-271c0 -13 7 -20 20 -20h139c12 0 22 -10 22 -21v-21c0 -12 -10 -22 -22 -22
h-139c-13 0 -20 -7 -20 -20v-282c0 -13 7 -20 20 -20zM154 911v33c0 12 9 21 21 21h32c12 0 21 -9 21 -21v-33c0 -12 -9 -21 -21 -21h-32c-12 0 -21 9 -21 21z" />
    <glyph glyph-name="edotaccent" unicode="&#x117;" horiz-adv-x="457" 
d="M130 444v-65c0 -15 7 -20 21 -20h155c13 0 22 7 22 21v66c0 94 -41 132 -99 132c-64 0 -99 -43 -99 -134zM395 178v-5c0 -124 -64 -180 -166 -180c-107 0 -166 73 -166 184v280c0 120 66 185 166 185c101 0 166 -62 166 -186v-138c0 -11 -11 -21 -21 -21h-223
c-13 0 -21 -7 -21 -20v-85c0 -91 35 -135 99 -135c65 0 99 44 99 117v4c0 11 10 20 21 20h25c11 0 21 -9 21 -20zM192 771v33c0 12 9 21 21 21h32c12 0 21 -9 21 -21v-33c0 -12 -9 -21 -21 -21h-32c-12 0 -21 9 -21 21z" />
    <glyph glyph-name="Eogonek" unicode="&#x118;" horiz-adv-x="367" 
d="M302 -97c16 0 25 -11 25 -24c0 -28 -34 -42 -62 -42c-36 0 -77 21 -77 64c0 46 38 56 38 78c0 12 -10 21 -24 21h-115c-11 0 -22 9 -22 20v784c0 11 11 21 22 21h211c11 0 20 -10 20 -21v-23c0 -11 -8 -20 -20 -20h-144c-13 0 -20 -7 -20 -20v-271c0 -13 7 -20 20 -20
h150c12 0 22 -9 22 -20v-23c0 -12 -10 -21 -22 -21h-150c-13 0 -20 -7 -20 -20v-282c0 -13 7 -20 20 -20h144c11 0 20 -9 20 -20v-24c0 -20 -5 -27 -28 -49l-17 -16c-19 -17 -24 -23 -24 -39c0 -13 13 -22 25 -22c10 0 17 9 28 9z" />
    <glyph glyph-name="eogonek" unicode="&#x119;" horiz-adv-x="457" 
d="M131 444v-56c0 -15 7 -20 21 -20h153c13 0 22 7 22 21v57c0 94 -40 132 -98 132c-64 0 -98 -43 -98 -134zM394 182v-4c0 -41 -8 -76 -20 -103c-17 -35 -66 -82 -87 -102l-19 -17c-11 -11 -22 -22 -22 -37s13 -25 26 -25c9 0 17 10 28 10c10 0 22 -9 22 -22
c0 -14 -18 -45 -64 -45c-43 0 -74 21 -74 62c0 43 37 51 37 75c0 12 -9 20 -23 22l-7 1c-79 11 -128 83 -128 180v280c0 120 66 185 166 185c101 0 165 -62 165 -186v-129c0 -11 -11 -21 -21 -21h-221c-13 0 -21 -7 -21 -20v-94c0 -91 34 -135 98 -135c65 0 98 46 98 121v4
c0 11 10 19 21 19h25c11 0 21 -8 21 -19z" />
    <glyph glyph-name="Ecaron" unicode="&#x11a;" horiz-adv-x="367" 
d="M154 64h143c11 0 21 -10 21 -21v-22c0 -12 -10 -21 -21 -21h-210c-11 0 -22 10 -22 21v783c0 11 11 21 22 21h210c11 0 21 -11 21 -22v-21c0 -11 -9 -21 -21 -21h-143c-13 0 -20 -7 -20 -20v-271c0 -13 7 -20 20 -20h139c12 0 22 -10 22 -21v-21c0 -12 -10 -22 -22 -22
h-139c-13 0 -20 -7 -20 -20v-282c0 -13 7 -20 20 -20zM122 1014l46 -41c8 -7 16 -10 23 -10s15 3 22 10l46 41c5 4 12 8 18 8c15 0 24 -10 24 -22c0 -6 -4 -12 -13 -23l-74 -87c-7 -8 -13 -13 -23 -13s-17 5 -24 13l-73 87c-9 11 -13 17 -13 23c0 12 9 22 23 22
c6 0 13 -4 18 -8z" />
    <glyph glyph-name="ecaron" unicode="&#x11b;" horiz-adv-x="457" 
d="M130 444v-65c0 -15 7 -20 21 -20h155c13 0 22 7 22 21v66c0 94 -41 132 -99 132c-64 0 -99 -43 -99 -134zM395 178v-5c0 -124 -64 -180 -166 -180c-107 0 -166 73 -166 184v280c0 120 66 185 166 185c101 0 166 -62 166 -186v-138c0 -11 -11 -21 -21 -21h-223
c-13 0 -21 -7 -21 -20v-85c0 -91 35 -135 99 -135c65 0 99 44 99 117v4c0 11 10 20 21 20h25c11 0 21 -9 21 -20zM251 783l46 41c5 4 12 8 18 8c15 0 24 -10 24 -22c0 -6 -4 -12 -13 -23l-74 -87c-7 -8 -13 -13 -23 -13s-17 5 -24 13l-73 87c-9 11 -13 17 -13 23
c0 12 9 22 23 22c6 0 13 -4 18 -8l46 -41c7 -7 16 -10 23 -10s14 3 22 10z" />
    <glyph glyph-name="Gcircumflex" unicode="&#x11c;" horiz-adv-x="457" 
d="M222 -7c-38 0 -84 15 -113 46c-25 28 -44 67 -44 136v474c0 114 59 183 169 183c100 0 169 -63 169 -183v-60c0 -12 -9 -21 -20 -21h-27c-11 0 -22 9 -22 21v45c0 90 -34 134 -100 134c-64 0 -100 -44 -100 -124v-453c0 -84 28 -134 100 -134c62 0 101 33 101 133v150
c0 10 -7 18 -19 18h-49c-12 0 -22 9 -22 21v23c0 11 9 20 20 20h118c11 0 20 -9 20 -20v-376c0 -15 -11 -28 -30 -28c-11 0 -19 4 -26 11l-2 2c-6 6 -10 8 -17 8c-9 0 -24 -8 -35 -12c-18 -7 -43 -14 -71 -14zM302 885l-46 41c-8 7 -15 10 -22 10s-16 -3 -23 -10l-46 -41
c-5 -4 -12 -8 -18 -8c-14 0 -23 10 -23 22c0 6 4 12 13 23l73 87c7 8 14 13 24 13s16 -5 23 -13l74 -87c9 -11 13 -17 13 -23c0 -12 -9 -22 -24 -22c-6 0 -13 4 -18 8z" />
    <glyph glyph-name="gcircumflex" unicode="&#x11d;" horiz-adv-x="457" 
d="M395 607v-565c0 -75 -8 -106 -23 -134c-27 -52 -78 -79 -144 -79c-87 0 -149 51 -162 143v9c0 12 9 21 20 21h23c13 0 22 -8 24 -21l1 -8c10 -52 52 -80 96 -80c55 0 98 36 98 120v8c0 9 1 24 1 28c0 10 -2 15 -5 19s-8 7 -15 7c-6 0 -10 -1 -13 -2
c-17 -5 -39 -19 -79 -19c-43 0 -85 18 -113 51c-25 31 -41 75 -41 136v219c0 107 57 182 157 182c22 0 46 -8 65 -15c11 -4 26 -13 34 -13s13 2 21 10c7 7 15 11 25 11c20 0 30 -13 30 -28zM328 239v219c0 42 -8 68 -22 87c-16 23 -43 34 -77 34c-58 0 -99 -39 -99 -125
v-206c0 -45 10 -76 25 -97c17 -22 42 -33 69 -33c72 0 104 42 104 121zM297 695l-46 41c-8 7 -15 10 -22 10s-16 -3 -23 -10l-46 -41c-5 -4 -12 -8 -18 -8c-14 0 -23 10 -23 22c0 6 4 12 13 23l73 87c7 8 14 13 24 13s16 -5 23 -13l74 -87c9 -11 13 -17 13 -23
c0 -12 -9 -22 -24 -22c-6 0 -13 4 -18 8z" />
    <glyph glyph-name="Gbreve" unicode="&#x11e;" horiz-adv-x="457" 
d="M222 -7c-38 0 -84 15 -113 46c-25 28 -44 67 -44 136v474c0 114 59 183 169 183c100 0 169 -63 169 -183v-60c0 -12 -9 -21 -20 -21h-27c-11 0 -22 9 -22 21v45c0 90 -34 134 -100 134c-64 0 -100 -44 -100 -124v-453c0 -84 28 -134 100 -134c62 0 101 33 101 133v150
c0 10 -7 18 -19 18h-49c-12 0 -22 9 -22 21v23c0 11 9 20 20 20h118c11 0 20 -9 20 -20v-376c0 -15 -11 -28 -30 -28c-11 0 -19 4 -26 11l-2 2c-6 6 -10 8 -17 8c-9 0 -24 -8 -35 -12c-18 -7 -43 -14 -71 -14zM234 880c-50 0 -98 33 -98 92c0 31 5 49 28 49c7 0 13 -3 17 -8
s6 -13 6 -22v-5c0 -29 22 -46 47 -46c26 0 47 17 47 46v5c0 9 2 17 6 22s11 8 18 8c22 0 27 -18 27 -49c0 -59 -46 -92 -98 -92z" />
    <glyph glyph-name="gbreve" unicode="&#x11f;" horiz-adv-x="457" 
d="M395 607v-565c0 -75 -8 -106 -23 -134c-27 -52 -78 -79 -144 -79c-87 0 -149 51 -162 143v9c0 12 9 21 20 21h23c13 0 22 -8 24 -21l1 -8c10 -52 52 -80 96 -80c55 0 98 36 98 120v8c0 9 1 24 1 28c0 10 -2 15 -5 19s-8 7 -15 7c-6 0 -10 -1 -13 -2
c-17 -5 -39 -19 -79 -19c-43 0 -85 18 -113 51c-25 31 -41 75 -41 136v219c0 107 57 182 157 182c22 0 46 -8 65 -15c11 -4 26 -13 34 -13s13 2 21 10c7 7 15 11 25 11c20 0 30 -13 30 -28zM328 239v219c0 42 -8 68 -22 87c-16 23 -43 34 -77 34c-58 0 -99 -39 -99 -125
v-206c0 -45 10 -76 25 -97c17 -22 42 -33 69 -33c72 0 104 42 104 121zM229 691c-50 0 -98 33 -98 92c0 31 5 49 28 49c7 0 13 -3 17 -8s6 -13 6 -22v-5c0 -29 22 -46 47 -46c26 0 47 17 47 46v5c0 9 2 17 6 22s11 8 18 8c22 0 27 -18 27 -49c0 -59 -46 -92 -98 -92z" />
    <glyph glyph-name="Gdotaccent" unicode="&#x120;" 
d="M222 -7c-38 0 -84 15 -113 46c-25 28 -44 67 -44 136v474c0 114 59 183 169 183c100 0 169 -63 169 -183v-60c0 -12 -9 -21 -20 -21h-27c-11 0 -22 9 -22 21v45c0 90 -34 134 -100 134c-64 0 -100 -44 -100 -124v-453c0 -84 28 -134 100 -134c62 0 101 33 101 133v150
c0 10 -7 18 -19 18h-49c-12 0 -22 9 -22 21v23c0 11 9 20 20 20h118c11 0 20 -9 20 -20v-376c0 -15 -11 -28 -30 -28c-11 0 -19 4 -26 11l-2 2c-6 6 -10 8 -17 8c-9 0 -24 -8 -35 -12c-18 -7 -43 -14 -71 -14zM197 911v33c0 12 9 21 21 21h32c12 0 21 -9 21 -21v-33
c0 -12 -9 -21 -21 -21h-32c-12 0 -21 9 -21 21z" />
    <glyph glyph-name="gdotaccent" unicode="&#x121;" horiz-adv-x="457" 
d="M395 607v-565c0 -75 -8 -106 -23 -134c-27 -52 -78 -79 -144 -79c-87 0 -149 51 -162 143v9c0 12 9 21 20 21h23c13 0 22 -8 24 -21l1 -8c10 -52 52 -80 96 -80c55 0 98 36 98 120v8c0 9 1 24 1 28c0 10 -2 15 -5 19s-8 7 -15 7c-6 0 -10 -1 -13 -2
c-17 -5 -39 -19 -79 -19c-43 0 -85 18 -113 51c-25 31 -41 75 -41 136v219c0 107 57 182 157 182c22 0 46 -8 65 -15c11 -4 26 -13 34 -13s13 2 21 10c7 7 15 11 25 11c20 0 30 -13 30 -28zM328 239v219c0 42 -8 68 -22 87c-16 23 -43 34 -77 34c-58 0 -99 -39 -99 -125
v-206c0 -45 10 -76 25 -97c17 -22 42 -33 69 -33c72 0 104 42 104 121zM190 771v33c0 12 9 21 21 21h32c12 0 21 -9 21 -21v-33c0 -12 -9 -21 -21 -21h-32c-12 0 -21 9 -21 21z" />
    <glyph glyph-name="uni0122" unicode="&#x122;" 
d="M222 -7c-38 0 -84 15 -113 46c-25 28 -44 67 -44 136v474c0 114 59 183 169 183c100 0 169 -63 169 -183v-60c0 -12 -9 -21 -20 -21h-27c-11 0 -22 9 -22 21v45c0 90 -34 134 -100 134c-64 0 -100 -44 -100 -124v-453c0 -84 28 -134 100 -134c62 0 101 33 101 133v150
c0 10 -7 18 -19 18h-49c-12 0 -22 9 -22 21v23c0 11 9 20 20 20h118c11 0 20 -9 20 -20v-376c0 -15 -11 -28 -30 -28c-11 0 -19 4 -26 11l-2 2c-6 6 -10 8 -17 8c-9 0 -24 -8 -35 -12c-18 -7 -43 -14 -71 -14zM227 -26h17c14 0 24 -10 24 -22c0 -50 -32 -100 -73 -119
c-7 -3 -13 -4 -18 -4c-13 0 -24 8 -24 24c0 12 8 19 16 26c19 16 33 43 33 72v1c0 12 10 22 25 22z" />
    <glyph glyph-name="uni0123" unicode="&#x123;" horiz-adv-x="457" 
d="M395 607v-565c0 -75 -8 -106 -23 -134c-27 -52 -78 -79 -144 -79c-87 0 -149 51 -162 143v9c0 12 9 21 20 21h23c13 0 22 -8 24 -21l1 -8c10 -52 52 -80 96 -80c55 0 98 36 98 120v8c0 9 1 24 1 28c0 10 -2 15 -5 19s-8 7 -15 7c-6 0 -10 -1 -13 -2
c-17 -5 -39 -19 -79 -19c-43 0 -85 18 -113 51c-25 31 -41 75 -41 136v219c0 107 57 182 157 182c22 0 46 -8 65 -15c11 -4 26 -13 34 -13s13 2 21 10c7 7 15 11 25 11c20 0 30 -13 30 -28zM328 239v219c0 42 -8 68 -22 87c-16 23 -43 34 -77 34c-58 0 -99 -39 -99 -125
v-206c0 -45 10 -76 25 -97c17 -22 42 -33 69 -33c72 0 104 42 104 121zM211 687h-10c-14 0 -24 10 -24 22c0 50 30 100 71 119c7 3 13 4 18 4c13 0 24 -8 24 -24c0 -12 -8 -19 -17 -26c-25 -22 -37 -36 -37 -69v-4c0 -12 -10 -22 -25 -22z" />
    <glyph glyph-name="commaaccent" unicode="&#xf6c3;" horiz-adv-x="458" 
d="M226 -26h17c14 0 24 -10 24 -22c0 -50 -32 -100 -73 -119c-7 -3 -13 -4 -18 -4c-13 0 -24 8 -24 24c0 12 8 19 16 26c19 16 33 43 33 72v1c0 12 10 22 25 22z" />
    <glyph glyph-name="Hcircumflex" unicode="&#x124;" 
d="M311 386h-156c-12 0 -21 -7 -21 -21v-345c0 -11 -9 -20 -22 -20h-25c-11 0 -22 9 -22 20v784c0 11 11 21 22 21h25c13 0 22 -10 22 -21v-332c0 -17 7 -22 21 -22h156c12 0 23 7 23 22v332c0 11 11 21 22 21h27c11 0 20 -10 20 -21v-784c0 -11 -9 -20 -20 -20h-27
c-11 0 -22 9 -22 20v345c0 14 -11 21 -23 21zM302 885l-46 41c-8 7 -15 10 -22 10s-16 -3 -23 -10l-46 -41c-5 -4 -12 -8 -18 -8c-14 0 -23 10 -23 22c0 6 4 12 13 23l73 87c7 8 14 13 24 13s16 -5 23 -13l74 -87c9 -11 13 -17 13 -23c0 -12 -9 -22 -24 -22
c-6 0 -13 4 -18 8z" />
    <glyph glyph-name="hcircumflex" unicode="&#x125;" horiz-adv-x="458" 
d="M63 21v783c0 12 10 21 22 21h24c13 0 22 -9 22 -21v-126c0 -9 -1 -24 -1 -28c0 -10 2 -15 5 -19s8 -7 15 -7c6 0 10 1 13 2c17 5 37 16 77 16c44 0 87 -18 114 -51c26 -31 41 -75 41 -136v-434c0 -12 -9 -21 -21 -21h-25c-12 0 -21 9 -21 21v427c0 45 -11 76 -26 97
c-16 22 -42 33 -69 33c-64 0 -103 -42 -103 -121v-436c0 -12 -9 -21 -22 -21h-23c-12 0 -22 9 -22 21zM297 885l-46 41c-8 7 -15 10 -22 10s-16 -3 -23 -10l-46 -41c-5 -4 -12 -8 -18 -8c-14 0 -23 10 -23 22c0 6 4 12 13 23l73 87c7 8 14 13 24 13s16 -5 23 -13l74 -87
c9 -11 13 -17 13 -23c0 -12 -9 -22 -24 -22c-6 0 -13 4 -18 8z" />
    <glyph glyph-name="Hbar" unicode="&#x126;" horiz-adv-x="536" 
d="M188 659h158c13 0 21 8 21 20v125c0 11 9 21 21 21h26c11 0 21 -10 21 -21v-125c0 -13 9 -20 21 -20h25c12 0 21 -9 21 -21v-21c0 -12 -9 -21 -21 -21h-25c-12 0 -21 -7 -21 -20v-556c0 -11 -10 -20 -21 -20h-26c-12 0 -21 9 -21 20v345c0 14 -9 21 -22 21h-156
c-12 0 -21 -7 -21 -21v-345c0 -11 -9 -20 -22 -20h-25c-11 0 -22 9 -22 20v556c0 13 -9 20 -21 20h-23c-13 0 -22 9 -22 21v21c0 12 9 21 22 21h23c12 0 21 7 21 20v125c0 11 11 21 22 21h25c13 0 22 -10 22 -21v-125c0 -12 8 -20 20 -20zM346 596h-158
c-12 0 -20 -8 -20 -20v-104c0 -17 7 -22 21 -22h156c15 0 22 5 22 22v104c0 12 -8 20 -21 20z" />
    <glyph glyph-name="hbar" unicode="&#x127;" horiz-adv-x="458" 
d="M63 21v688c0 12 -8 20 -20 20h-26c-13 0 -22 8 -22 20v12c0 12 9 20 22 20h26c12 0 20 8 20 20v3c0 12 10 21 22 21h24c13 0 22 -9 22 -21v-3c0 -13 9 -20 21 -20h74c12 0 21 -8 21 -20v-12c0 -12 -9 -20 -21 -20h-74c-12 0 -21 -7 -21 -20v-31c0 -9 -1 -24 -1 -28
c0 -10 2 -15 5 -19s8 -7 15 -7c6 0 10 1 13 2c17 5 37 16 77 16c44 0 86 -18 113 -51c26 -31 41 -75 41 -136v-434c0 -12 -9 -21 -21 -21h-25c-12 0 -21 9 -21 21v427c0 45 -11 76 -26 97c-16 22 -41 33 -68 33c-64 0 -102 -42 -102 -121v-436c0 -12 -9 -21 -22 -21h-24
c-12 0 -22 9 -22 21z" />
    <glyph glyph-name="Itilde" unicode="&#x128;" horiz-adv-x="228" 
d="M100 917l-10 9c-10 9 -15 13 -25 13s-18 -7 -21 -18l-2 -8c-3 -10 -12 -18 -25 -18c-12 0 -23 10 -23 25c0 39 42 77 76 77c24 0 41 -6 59 -21l10 -9c10 -9 15 -13 24 -13c10 0 19 7 22 18l2 8c3 10 11 18 23 18s24 -10 24 -24c0 -40 -39 -78 -74 -78c-23 0 -43 6 -60 21
zM79 21v783c0 12 10 21 22 21h25c13 0 22 -9 22 -21v-783c0 -12 -9 -21 -22 -21h-25c-12 0 -22 9 -22 21z" />
    <glyph glyph-name="itilde" unicode="&#x129;" horiz-adv-x="223" 
d="M98 730l-10 9c-10 9 -15 13 -25 13s-18 -7 -21 -18l-2 -8c-3 -10 -12 -18 -25 -18c-12 0 -23 10 -23 25c0 39 42 77 76 77c24 0 42 -6 60 -21l10 -9c10 -9 15 -13 24 -13c10 0 19 7 22 18l2 8c3 10 11 18 23 18s24 -10 24 -24c0 -40 -39 -78 -74 -78c-23 0 -44 6 -61 21z
M78 21v593c0 12 10 21 22 21h23c13 0 22 -9 22 -21v-593c0 -12 -9 -21 -22 -21h-23c-12 0 -22 9 -22 21z" />
    <glyph glyph-name="Imacron" unicode="&#x12a;" horiz-adv-x="228" 
d="M8 950h209c13 0 22 -8 22 -20v-16c0 -12 -9 -20 -22 -20h-209c-12 0 -21 8 -21 20v16c0 12 9 20 21 20zM79 21v783c0 12 10 21 22 21h25c13 0 22 -9 22 -21v-783c0 -12 -9 -21 -22 -21h-25c-12 0 -22 9 -22 21z" />
    <glyph glyph-name="imacron" unicode="&#x12b;" horiz-adv-x="223" 
d="M7 783h209c13 0 22 -8 22 -20v-16c0 -12 -9 -20 -22 -20h-209c-12 0 -21 8 -21 20v16c0 12 9 20 21 20zM78 21v593c0 12 10 21 22 21h23c13 0 22 -9 22 -21v-593c0 -12 -9 -21 -22 -21h-23c-12 0 -22 9 -22 21z" />
    <glyph glyph-name="Iogonek" unicode="&#x12e;" horiz-adv-x="228" 
d="M79 18v786c0 12 10 21 22 21h25c13 0 22 -9 22 -21v-783c0 -20 -5 -34 -28 -53l-18 -16c-12 -11 -17 -23 -17 -33c0 -17 14 -30 31 -30c10 0 18 9 29 9c16 0 24 -11 24 -24c0 -28 -33 -42 -61 -42c-55 0 -89 34 -89 73c0 22 11 45 33 65l12 11c12 11 15 22 15 37z" />
    <glyph glyph-name="iogonek" unicode="&#x12f;" horiz-adv-x="223" 
d="M74 771v33c0 12 10 21 22 21h31c13 0 22 -9 22 -21v-33c0 -12 -9 -21 -22 -21h-31c-12 0 -22 9 -22 21zM77 18v596c0 12 10 21 22 21h24c13 0 22 -9 22 -21v-593c0 -20 -5 -34 -28 -53l-18 -16c-12 -11 -17 -23 -17 -33c0 -17 14 -30 31 -30c10 0 18 9 29 9
c16 0 24 -11 24 -24c0 -28 -33 -42 -61 -42c-55 0 -89 34 -89 73c0 22 10 45 33 65l12 11c12 11 16 22 16 37z" />
    <glyph glyph-name="Idotaccent" unicode="&#x130;" horiz-adv-x="228" 
d="M76 911v33c0 12 9 21 21 21h32c12 0 21 -9 21 -21v-33c0 -12 -9 -21 -21 -21h-32c-12 0 -21 9 -21 21zM79 21v783c0 12 10 21 22 21h25c13 0 22 -9 22 -21v-783c0 -12 -9 -21 -22 -21h-25c-12 0 -22 9 -22 21z" />
    <glyph glyph-name="IJ" unicode="&#x132;" horiz-adv-x="557" 
d="M78 21v783c0 12 10 21 22 21h25c13 0 22 -9 22 -21v-783c0 -12 -9 -21 -22 -21h-25c-12 0 -22 9 -22 21zM312 0h-31c-12 0 -23 8 -23 20v24c0 11 11 20 23 20h28c29 0 53 9 73 29c20 22 26 58 26 106v606c0 11 9 20 23 20h25c13 0 21 -9 21 -20v-618
c0 -61 -15 -99 -37 -129c-27 -35 -70 -58 -128 -58z" />
    <glyph glyph-name="ij" unicode="&#x133;" horiz-adv-x="446" 
d="M78 21v593c0 12 10 21 22 21h23c13 0 22 -9 22 -21v-593c0 -12 -9 -21 -22 -21h-23c-12 0 -22 9 -22 21zM74 771v33c0 12 10 21 22 21h31c13 0 22 -9 22 -21v-33c0 -12 -9 -21 -22 -21h-31c-12 0 -22 9 -22 21zM368 614v-601c0 -59 -7 -102 -32 -133
c-24 -31 -66 -45 -110 -45h-24c-12 0 -21 10 -21 21v23c0 11 9 21 21 21h36c24 0 41 9 50 24s13 44 13 68v622c0 12 10 21 22 21h23c13 0 22 -9 22 -21zM297 771v33c0 12 10 21 22 21h31c13 0 22 -9 22 -21v-33c0 -12 -9 -21 -22 -21h-31c-12 0 -22 9 -22 21z" />
    <glyph glyph-name="Jcircumflex" unicode="&#x134;" horiz-adv-x="325" 
d="M80 0h-31c-12 0 -23 8 -23 20v24c0 11 11 20 23 20h28c29 0 53 9 73 29c20 22 26 58 26 106v606c0 11 9 20 23 20h25c13 0 21 -9 21 -20v-618c0 -61 -15 -99 -37 -129c-27 -35 -70 -58 -128 -58zM280 885l-46 41c-8 7 -15 10 -22 10s-16 -3 -23 -10l-46 -41
c-5 -4 -12 -8 -18 -8c-14 0 -23 10 -23 22c0 6 4 12 13 23l73 87c7 8 14 13 24 13s16 -5 23 -13l74 -87c9 -11 13 -17 13 -23c0 -12 -9 -22 -24 -22c-6 0 -13 4 -18 8z" />
    <glyph glyph-name="jcircumflex" unicode="&#x135;" horiz-adv-x="223" 
d="M148 614v-600c0 -59 -8 -103 -33 -134c-24 -31 -66 -45 -110 -45h-24c-12 0 -21 10 -21 21v23c0 11 9 21 21 21h36c24 0 41 9 50 24s13 44 13 68v622c0 12 10 21 22 21h24c13 0 22 -9 22 -21zM182 695l-46 41c-8 7 -15 10 -22 10s-16 -3 -23 -10l-46 -41
c-5 -4 -12 -8 -18 -8c-14 0 -23 10 -23 22c0 6 4 12 13 23l73 87c7 8 14 13 24 13s16 -5 23 -13l74 -87c9 -11 13 -17 13 -23c0 -12 -9 -22 -24 -22c-6 0 -13 4 -18 8z" />
    <glyph glyph-name="uni0136" unicode="&#x136;" horiz-adv-x="470" 
d="M65 20v784c0 11 11 21 22 21h25c13 0 22 -10 22 -21v-333c0 -16 5 -22 21 -22h79c64 0 100 40 100 135v220c0 11 11 21 22 21h26c12 0 21 -10 21 -21v-195c0 -10 1 -18 1 -29c0 -44 -5 -104 -44 -141l-7 -8c-7 -6 -9 -11 -9 -16s2 -10 9 -17l7 -8c36 -34 43 -86 43 -128
v-242c0 -11 -9 -20 -21 -20h-26c-11 0 -22 9 -22 20v230c0 90 -33 136 -100 136h-80c-13 0 -20 -10 -20 -23v-343c0 -11 -9 -20 -22 -20h-25c-11 0 -22 9 -22 20zM232 -26h17c14 0 24 -10 24 -22c0 -50 -32 -100 -73 -119c-7 -3 -13 -4 -18 -4c-13 0 -24 8 -24 24
c0 12 8 19 16 26c19 16 33 43 33 72v1c0 12 10 22 25 22z" />
    <glyph glyph-name="uni0137" unicode="&#x137;" horiz-adv-x="457" 
d="M63 20v784c0 11 10 21 22 21h24c12 0 21 -10 21 -21v-416c0 -16 6 -22 22 -22h76c64 0 100 46 100 125v123c0 12 9 21 20 21h26c11 0 21 -9 21 -21v-122c0 -43 -5 -97 -42 -134l-7 -8c-7 -6 -9 -11 -9 -16s2 -10 9 -16l7 -8c34 -34 42 -83 42 -124v-166
c0 -11 -9 -20 -20 -20h-27c-11 0 -20 9 -20 20v162c0 73 -33 126 -100 126h-78c-13 0 -20 -10 -20 -23v-265c0 -11 -9 -20 -21 -20h-24c-12 0 -22 9 -22 20zM223 -26h17c14 0 24 -10 24 -22c0 -50 -32 -100 -73 -119c-7 -3 -13 -4 -18 -4c-13 0 -24 8 -24 24
c0 12 8 19 16 26c19 16 33 43 33 72v1c0 12 10 22 25 22z" />
    <glyph glyph-name="kgreenlandic" unicode="&#x138;" horiz-adv-x="465" 
d="M63 20v594c0 11 10 21 22 21h25c12 0 21 -10 21 -21v-226c0 -16 6 -22 22 -22h75c64 0 99 46 99 125v123c0 12 9 21 20 21h26c11 0 21 -9 21 -21v-122c0 -43 -4 -97 -41 -134l-7 -8c-7 -6 -9 -11 -9 -16s2 -10 9 -16l7 -8c34 -34 40 -83 40 -124v-166
c0 -11 -9 -20 -20 -20h-26c-11 0 -20 9 -20 20v162c0 73 -32 126 -99 126h-77c-13 0 -20 -10 -20 -23v-265c0 -11 -9 -20 -21 -20h-25c-12 0 -22 9 -22 20z" />
    <glyph glyph-name="Lacute" unicode="&#x139;" horiz-adv-x="353" 
d="M134 805v-718c0 -13 9 -23 21 -23h148c11 0 21 -9 21 -20v-24c0 -11 -10 -20 -21 -20h-215c-11 0 -23 9 -23 20v785c0 11 12 20 23 20h25c12 0 21 -9 21 -20zM268 979l-137 -98c-6 -4 -12 -6 -17 -6c-12 0 -22 10 -22 21c0 9 4 12 17 26l72 78c14 15 21 18 42 18h33
c13 0 21 -11 21 -21c0 -6 -2 -13 -9 -18z" />
    <glyph glyph-name="lacute" unicode="&#x13a;" horiz-adv-x="222" 
d="M77 21v783c0 12 10 21 22 21h23c13 0 22 -9 22 -21v-783c0 -12 -9 -21 -22 -21h-23c-12 0 -22 9 -22 21zM251 979l-137 -98c-6 -4 -12 -6 -17 -6c-12 0 -22 10 -22 21c0 9 4 12 17 26l72 78c14 15 21 18 42 18h33c13 0 21 -11 21 -21c0 -6 -2 -13 -9 -18z" />
    <glyph glyph-name="uni013B" unicode="&#x13b;" horiz-adv-x="353" 
d="M134 805v-718c0 -13 9 -23 21 -23h148c11 0 21 -9 21 -20v-24c0 -11 -10 -20 -21 -20h-215c-11 0 -23 9 -23 20v785c0 11 12 20 23 20h25c12 0 21 -9 21 -20zM183 -26h17c14 0 24 -10 24 -22c0 -50 -32 -100 -73 -119c-7 -3 -13 -4 -18 -4c-13 0 -24 8 -24 24
c0 12 8 19 16 26c19 16 33 43 33 72v1c0 12 10 22 25 22z" />
    <glyph glyph-name="uni013C" unicode="&#x13c;" horiz-adv-x="222" 
d="M78 21v783c0 12 10 21 22 21h23c13 0 22 -9 22 -21v-783c0 -12 -9 -21 -22 -21h-23c-12 0 -22 9 -22 21zM103 -26h17c14 0 24 -10 24 -22c0 -50 -32 -100 -73 -119c-7 -3 -13 -4 -18 -4c-13 0 -24 8 -24 24c0 12 8 19 16 26c19 16 33 43 33 72v1c0 12 10 22 25 22z" />
    <glyph glyph-name="Lcaron" unicode="&#x13d;" horiz-adv-x="353" 
d="M134 805v-718c0 -13 9 -23 21 -23h148c11 0 21 -9 21 -20v-24c0 -11 -10 -20 -21 -20h-215c-11 0 -23 9 -23 20v785c0 11 12 20 23 20h25c12 0 21 -9 21 -20zM244 800v3c0 15 8 22 23 22h22c16 0 23 -7 23 -22v-5c0 -47 -25 -106 -44 -129c-8 -10 -22 -23 -34 -23
s-23 8 -23 22c0 8 4 16 9 26l5 11c10 22 19 52 19 95z" />
    <glyph glyph-name="lcaron" unicode="&#x13e;" horiz-adv-x="362" 
d="M63 21v783c0 12 10 21 22 21h23c13 0 22 -9 22 -21v-783c0 -12 -9 -21 -22 -21h-23c-12 0 -22 9 -22 21zM253 800v3c0 15 8 22 23 22h22c16 0 23 -7 23 -22v-5c0 -47 -25 -106 -44 -129c-8 -10 -22 -23 -34 -23s-23 8 -23 22c0 8 4 16 9 26l5 11c10 22 19 52 19 95z" />
    <glyph glyph-name="Ldot" unicode="&#x13f;" horiz-adv-x="388" 
d="M134 805v-718c0 -13 9 -23 21 -23h148c11 0 21 -9 21 -20v-24c0 -11 -10 -20 -21 -20h-215c-11 0 -23 9 -23 20v785c0 11 12 20 23 20h25c12 0 21 -9 21 -20zM254 398v36c0 12 10 21 22 21h35c13 0 22 -9 22 -21v-36c0 -12 -9 -21 -22 -21h-35c-12 0 -22 9 -22 21z" />
    <glyph glyph-name="ldot" unicode="&#x140;" horiz-adv-x="380" 
d="M63 21v783c0 12 10 21 22 21h23c13 0 22 -9 22 -21v-783c0 -12 -9 -21 -22 -21h-23c-12 0 -22 9 -22 21zM254 398v36c0 12 10 21 22 21h35c13 0 22 -9 22 -21v-36c0 -12 -9 -21 -22 -21h-35c-12 0 -22 9 -22 21z" />
    <glyph glyph-name="lslash" unicode="&#x142;" horiz-adv-x="311" 
d="M189 406v-386c0 -11 -9 -20 -21 -20h-26c-11 0 -20 9 -20 20v345c0 13 -6 18 -14 18c-4 0 -9 -1 -16 -5l-4 -2c-4 -2 -9 -4 -12 -4c-8 0 -14 3 -18 10l-4 7c-3 4 -4 8 -4 11c0 7 4 14 13 19l37 20c16 8 22 16 22 34v332c0 11 9 20 20 20h26c12 0 21 -9 21 -20v-291
c0 -13 6 -18 14 -18c5 0 9 1 16 5l4 2c4 2 9 4 12 4c8 0 14 -3 18 -10l5 -7c2 -4 3 -8 3 -11c0 -7 -3 -15 -12 -19l-38 -20c-16 -8 -22 -16 -22 -34z" />
    <glyph glyph-name="Nacute" unicode="&#x143;" 
d="M65 20v777c0 15 11 28 30 28c10 0 18 -4 26 -11l2 -2c6 -6 10 -8 17 -8c8 0 23 9 35 13c18 7 42 15 67 15c42 0 87 -14 117 -47c26 -28 44 -69 44 -138v-627c0 -11 -9 -20 -21 -20h-26c-12 0 -22 9 -22 20v611c0 96 -38 137 -99 137c-75 0 -101 -55 -101 -140v-608
c0 -11 -9 -20 -21 -20h-25c-11 0 -23 9 -23 20zM318 979l-137 -98c-6 -4 -12 -6 -17 -6c-12 0 -22 10 -22 21c0 9 4 12 17 26l72 78c14 15 21 18 42 18h33c13 0 21 -11 21 -21c0 -6 -2 -13 -9 -18z" />
    <glyph glyph-name="nacute" unicode="&#x144;" horiz-adv-x="458" 
d="M351 595c26 -28 44 -69 44 -138v-437c0 -11 -9 -20 -20 -20h-27c-11 0 -20 9 -20 20v424c0 48 -8 83 -29 106c-18 19 -44 28 -70 28c-27 0 -52 -8 -72 -27c-21 -23 -27 -59 -27 -107v-424c0 -11 -9 -20 -22 -20h-24c-11 0 -21 9 -21 20v587c0 15 11 28 30 28
c10 0 18 -4 26 -11l2 -2c6 -6 10 -8 17 -8c8 0 23 9 35 13c18 7 42 15 67 15c42 0 80 -14 111 -47zM308 786l-113 -95c-9 -8 -16 -9 -21 -9c-12 0 -21 11 -21 22c0 8 3 13 13 25l59 74c14 17 26 22 46 22h23c13 0 22 -11 22 -21c0 -6 -2 -13 -8 -18z" />
    <glyph glyph-name="uni0145" unicode="&#x145;" 
d="M65 20v777c0 15 11 28 30 28c10 0 18 -4 26 -11l2 -2c6 -6 10 -8 17 -8c8 0 23 9 35 13c18 7 42 15 67 15c42 0 87 -14 117 -47c26 -28 44 -69 44 -138v-627c0 -11 -9 -20 -21 -20h-26c-12 0 -22 9 -22 20v611c0 96 -38 137 -99 137c-75 0 -101 -55 -101 -140v-608
c0 -11 -9 -20 -21 -20h-25c-11 0 -23 9 -23 20zM236 -26h17c14 0 24 -10 24 -22c0 -50 -32 -100 -73 -119c-7 -3 -13 -4 -18 -4c-13 0 -24 8 -24 24c0 12 8 19 16 26c19 16 33 43 33 72v1c0 12 10 22 25 22z" />
    <glyph glyph-name="uni0146" unicode="&#x146;" horiz-adv-x="458" 
d="M351 595c26 -28 44 -69 44 -138v-437c0 -11 -9 -20 -20 -20h-27c-11 0 -20 9 -20 20v424c0 48 -8 83 -29 106c-18 19 -44 28 -70 28c-27 0 -52 -8 -72 -27c-21 -23 -27 -59 -27 -107v-424c0 -11 -9 -20 -22 -20h-24c-11 0 -21 9 -21 20v587c0 15 11 28 30 28
c10 0 18 -4 26 -11l2 -2c6 -6 10 -8 17 -8c8 0 23 9 35 13c18 7 42 15 67 15c42 0 80 -14 111 -47zM226 -26h17c14 0 24 -10 24 -22c0 -50 -32 -100 -73 -119c-7 -3 -13 -4 -18 -4c-13 0 -24 8 -24 24c0 12 8 19 16 26c19 16 33 43 33 72v1c0 12 10 22 25 22z" />
    <glyph glyph-name="Ncaron" unicode="&#x147;" 
d="M65 20v777c0 15 11 28 30 28c10 0 18 -4 26 -11l2 -2c6 -6 10 -8 17 -8c8 0 23 9 35 13c18 7 42 15 67 15c42 0 87 -14 117 -47c26 -28 44 -69 44 -138v-627c0 -11 -9 -20 -21 -20h-26c-12 0 -22 9 -22 20v611c0 96 -38 137 -99 137c-75 0 -101 -55 -101 -140v-608
c0 -11 -9 -20 -21 -20h-25c-11 0 -23 9 -23 20zM164 1014l46 -41c8 -7 16 -10 23 -10s15 3 22 10l46 41c5 4 12 8 18 8c15 0 24 -10 24 -22c0 -6 -4 -12 -13 -23l-74 -87c-7 -8 -13 -13 -23 -13s-17 5 -24 13l-73 87c-9 11 -13 17 -13 23c0 12 9 22 23 22c6 0 13 -4 18 -8z
" />
    <glyph glyph-name="ncaron" unicode="&#x148;" horiz-adv-x="458" 
d="M351 595c26 -28 44 -69 44 -138v-437c0 -11 -9 -20 -20 -20h-27c-11 0 -20 9 -20 20v424c0 48 -8 83 -29 106c-18 19 -44 28 -70 28c-27 0 -52 -8 -72 -27c-21 -23 -27 -59 -27 -107v-424c0 -11 -9 -20 -22 -20h-24c-11 0 -21 9 -21 20v587c0 15 11 28 30 28
c10 0 18 -4 26 -11l2 -2c6 -6 10 -8 17 -8c8 0 23 9 35 13c18 7 42 15 67 15c42 0 80 -14 111 -47zM251 783l46 41c5 4 12 8 18 8c15 0 24 -10 24 -22c0 -6 -4 -12 -13 -23l-74 -87c-7 -8 -13 -13 -23 -13s-17 5 -24 13l-73 87c-9 11 -13 17 -13 23c0 12 9 22 23 22
c6 0 13 -4 18 -8l46 -41c7 -7 16 -10 23 -10s14 3 22 10z" />
    <glyph glyph-name="napostrophe" unicode="&#x149;" horiz-adv-x="458" 
d="M351 595c26 -28 44 -69 44 -138v-437c0 -11 -9 -20 -20 -20h-27c-11 0 -20 9 -20 20v424c0 48 -8 83 -29 106c-18 19 -44 28 -70 28c-27 0 -52 -8 -72 -27c-21 -23 -27 -59 -27 -107v-424c0 -11 -9 -20 -22 -20h-24c-11 0 -21 9 -21 20v587c0 15 11 28 30 28
c10 0 18 -4 26 -11l2 -2c6 -6 10 -8 17 -8c8 0 23 9 35 13c18 7 42 15 67 15c42 0 80 -14 111 -47zM8 800v3c0 15 8 22 23 22h22c16 0 23 -7 23 -22v-5c0 -47 -25 -106 -44 -129c-8 -10 -22 -23 -34 -23s-23 8 -23 22c0 8 4 16 9 26l5 11c10 22 19 52 19 95z" />
    <glyph glyph-name="Omacron" unicode="&#x14c;" 
d="M234 57c65 0 100 44 100 134v443c0 90 -35 134 -100 134s-100 -44 -100 -134v-443c0 -90 35 -134 100 -134zM234 -7c-102 0 -169 59 -169 182v474c0 129 76 183 169 183s169 -54 169 -183v-474c0 -123 -67 -182 -169 -182zM129 950h209c13 0 22 -8 22 -20v-16
c0 -12 -9 -20 -22 -20h-209c-12 0 -21 8 -21 20v16c0 12 9 20 21 20z" />
    <glyph glyph-name="omacron" unicode="&#x14d;" horiz-adv-x="458" 
d="M229 57c60 0 99 42 99 125v271c0 83 -39 125 -99 125s-99 -42 -99 -125v-271c0 -83 39 -125 99 -125zM229 -7c-102 0 -166 63 -166 185v279c0 122 64 185 166 185s166 -63 166 -185v-279c0 -122 -64 -185 -166 -185zM124 783h209c13 0 22 -8 22 -20v-16
c0 -12 -9 -20 -22 -20h-209c-12 0 -21 8 -21 20v16c0 12 9 20 21 20z" />
    <glyph glyph-name="Obreve" unicode="&#x14e;" horiz-adv-x="467" 
d="M234 57c65 0 100 44 100 134v443c0 90 -35 134 -100 134s-100 -44 -100 -134v-443c0 -90 35 -134 100 -134zM234 -7c-102 0 -169 59 -169 182v474c0 129 76 183 169 183s169 -54 169 -183v-474c0 -123 -67 -182 -169 -182zM234 880c-50 0 -98 33 -98 92c0 31 5 49 28 49
c7 0 13 -3 17 -8s6 -13 6 -22v-5c0 -29 22 -46 47 -46c26 0 47 17 47 46v5c0 9 2 17 6 22s11 8 18 8c22 0 27 -18 27 -49c0 -59 -46 -92 -98 -92z" />
    <glyph glyph-name="obreve" unicode="&#x14f;" horiz-adv-x="458" 
d="M229 57c60 0 99 42 99 125v271c0 83 -39 125 -99 125s-99 -42 -99 -125v-271c0 -83 39 -125 99 -125zM229 -7c-102 0 -166 63 -166 185v279c0 122 64 185 166 185s166 -63 166 -185v-279c0 -122 -64 -185 -166 -185zM229 691c-50 0 -98 33 -98 92c0 31 5 49 28 49
c7 0 13 -3 17 -8s6 -13 6 -22v-5c0 -29 22 -46 47 -46c26 0 47 17 47 46v5c0 9 2 17 6 22s11 8 18 8c22 0 27 -18 27 -49c0 -59 -46 -92 -98 -92z" />
    <glyph glyph-name="Ohungarumlaut" unicode="&#x150;" 
d="M234 57c65 0 100 44 100 134v443c0 90 -35 134 -100 134s-100 -44 -100 -134v-443c0 -90 35 -134 100 -134zM234 -7c-102 0 -169 59 -169 182v474c0 129 76 183 169 183s169 -54 169 -183v-474c0 -123 -67 -182 -169 -182zM416 981l-120 -96c-5 -4 -11 -8 -18 -8
c-14 0 -23 10 -23 22c0 6 2 12 12 23l69 80c14 16 21 20 42 20h26c13 0 22 -11 22 -21c0 -7 -2 -13 -10 -20zM273 981l-120 -96c-5 -4 -11 -8 -17 -8c-15 0 -24 10 -24 22c0 6 2 12 12 23l69 80c14 16 21 20 43 20h25c13 0 23 -11 23 -21c0 -7 -2 -13 -11 -20z" />
    <glyph glyph-name="ohungarumlaut" unicode="&#x151;" horiz-adv-x="458" 
d="M229 57c60 0 99 42 99 125v271c0 83 -39 125 -99 125s-99 -42 -99 -125v-271c0 -83 39 -125 99 -125zM229 -7c-102 0 -166 63 -166 185v279c0 122 64 185 166 185s166 -63 166 -185v-279c0 -122 -64 -185 -166 -185zM416 784l-120 -96c-5 -4 -11 -8 -18 -8
c-14 0 -23 10 -23 22c0 6 2 12 12 23l69 80c14 16 21 20 42 20h26c13 0 22 -11 22 -21c0 -7 -2 -13 -10 -20zM273 784l-120 -96c-5 -4 -11 -8 -17 -8c-15 0 -24 10 -24 22c0 6 2 12 12 23l69 80c14 16 21 20 43 20h25c13 0 23 -11 23 -21c0 -7 -2 -13 -11 -20z" />
    <glyph glyph-name="Racute" unicode="&#x154;" 
d="M236 761h-74c-18 0 -25 -6 -25 -22v-296c0 -16 5 -22 21 -22h74c81 0 100 57 100 125v89c0 86 -33 126 -96 126zM401 642v-106c0 -41 -7 -88 -43 -123l-7 -8c-7 -6 -8 -11 -8 -16s1 -10 8 -16l7 -8c36 -34 43 -83 43 -125v-220c0 -11 -9 -20 -20 -20h-27
c-11 0 -22 9 -22 20v206c0 75 -25 133 -100 133h-75c-13 0 -20 -10 -20 -23v-316c0 -11 -9 -20 -22 -20h-25c-11 0 -22 9 -22 20v784c0 11 11 21 22 21h144c114 0 167 -75 167 -183zM318 979l-137 -98c-6 -4 -12 -6 -17 -6c-12 0 -22 10 -22 21c0 9 4 12 17 26l72 78
c14 15 21 18 42 18h33c13 0 21 -11 21 -21c0 -6 -2 -13 -9 -18z" />
    <glyph glyph-name="racute" unicode="&#x155;" horiz-adv-x="315" 
d="M253 641h8c14 0 25 -8 25 -23v-22c0 -13 -11 -20 -24 -20h-20c-94 0 -111 -51 -111 -131v-423c0 -12 -10 -22 -24 -22h-19c-13 0 -24 10 -24 22v586c0 15 11 28 30 28c10 0 18 -5 26 -12l2 -2c6 -6 10 -8 17 -8c8 0 23 7 35 11c18 7 53 16 79 16zM249 786l-113 -95
c-9 -8 -16 -9 -21 -9c-12 0 -21 11 -21 22c0 8 3 13 13 25l59 74c14 17 26 22 46 22h23c13 0 22 -11 22 -21c0 -6 -2 -13 -8 -18z" />
    <glyph glyph-name="uni0156" unicode="&#x156;" 
d="M236 761h-74c-18 0 -25 -6 -25 -22v-296c0 -16 5 -22 21 -22h74c81 0 100 57 100 125v89c0 86 -33 126 -96 126zM401 642v-106c0 -41 -7 -88 -43 -123l-7 -8c-7 -6 -8 -11 -8 -16s1 -10 8 -16l7 -8c36 -34 43 -83 43 -125v-220c0 -11 -9 -20 -20 -20h-27
c-11 0 -22 9 -22 20v206c0 75 -25 133 -100 133h-75c-13 0 -20 -10 -20 -23v-316c0 -11 -9 -20 -22 -20h-25c-11 0 -22 9 -22 20v784c0 11 11 21 22 21h144c114 0 167 -75 167 -183zM233 -26h17c14 0 24 -10 24 -22c0 -50 -32 -100 -73 -119c-7 -3 -13 -4 -18 -4
c-13 0 -24 8 -24 24c0 12 8 19 16 26c19 16 33 43 33 72v1c0 12 10 22 25 22z" />
    <glyph glyph-name="uni0157" unicode="&#x157;" horiz-adv-x="315" 
d="M252 641h8c14 0 25 -8 25 -23v-22c0 -13 -11 -20 -24 -20h-20c-94 0 -111 -51 -111 -131v-423c0 -12 -10 -22 -24 -22h-19c-13 0 -24 10 -24 22v586c0 15 11 28 30 28c10 0 18 -5 26 -12l2 -2c6 -6 10 -8 17 -8c8 0 23 7 35 11c18 7 53 16 79 16zM96 -26h17
c14 0 24 -10 24 -22c0 -50 -32 -100 -73 -119c-7 -3 -13 -4 -18 -4c-13 0 -24 8 -24 24c0 12 8 19 16 26c19 16 33 43 33 72v1c0 12 10 22 25 22z" />
    <glyph glyph-name="Rcaron" unicode="&#x158;" 
d="M236 761h-74c-18 0 -25 -6 -25 -22v-296c0 -16 5 -22 21 -22h74c81 0 100 57 100 125v89c0 86 -33 126 -96 126zM401 642v-106c0 -41 -7 -88 -43 -123l-7 -8c-7 -6 -8 -11 -8 -16s1 -10 8 -16l7 -8c36 -34 43 -83 43 -125v-220c0 -11 -9 -20 -20 -20h-27
c-11 0 -22 9 -22 20v206c0 75 -25 133 -100 133h-75c-13 0 -20 -10 -20 -23v-316c0 -11 -9 -20 -22 -20h-25c-11 0 -22 9 -22 20v784c0 11 11 21 22 21h144c114 0 167 -75 167 -183zM165 1014l46 -41c8 -7 16 -10 23 -10s15 3 22 10l46 41c5 4 12 8 18 8c15 0 24 -10 24 -22
c0 -6 -4 -12 -13 -23l-74 -87c-7 -8 -13 -13 -23 -13s-17 5 -24 13l-73 87c-9 11 -13 17 -13 23c0 12 9 22 23 22c6 0 13 -4 18 -8z" />
    <glyph glyph-name="rcaron" unicode="&#x159;" horiz-adv-x="315" 
d="M252 641h8c14 0 25 -8 25 -23v-22c0 -13 -11 -20 -24 -20h-20c-94 0 -111 -51 -111 -131v-423c0 -12 -10 -22 -24 -22h-19c-13 0 -24 10 -24 22v586c0 15 11 28 30 28c10 0 18 -5 26 -12l2 -2c6 -6 10 -8 17 -8c8 0 23 7 35 11c18 7 53 16 79 16zM188 783l46 41
c5 4 12 8 18 8c15 0 24 -10 24 -22c0 -6 -4 -12 -13 -23l-74 -87c-7 -8 -13 -13 -23 -13s-17 5 -24 13l-73 87c-9 11 -13 17 -13 23c0 12 9 22 23 22c6 0 13 -4 18 -8l46 -41c7 -7 16 -10 23 -10s14 3 22 10z" />
    <glyph glyph-name="Sacute" unicode="&#x15a;" horiz-adv-x="463" 
d="M131 634v-55c0 -62 13 -91 77 -123l76 -37c79 -39 116 -82 116 -174v-70c0 -118 -64 -182 -168 -182s-169 63 -169 182v58c0 12 11 21 22 21h25c12 0 22 -9 22 -21v-42c0 -92 35 -134 100 -134c66 0 100 44 100 134v42c0 70 -29 100 -78 124l-79 39
c-83 41 -112 88 -112 171v82c0 122 66 183 168 183c110 0 169 -73 169 -183v-60c0 -11 -10 -21 -21 -21h-27c-11 0 -21 10 -21 21v45c0 92 -36 134 -100 134c-66 0 -100 -44 -100 -134zM324 979l-137 -98c-6 -4 -12 -6 -17 -6c-12 0 -22 10 -22 21c0 9 4 12 17 26l72 78
c14 15 21 18 42 18h33c13 0 21 -11 21 -21c0 -6 -2 -13 -9 -18z" />
    <glyph glyph-name="sacute" unicode="&#x15b;" horiz-adv-x="451" 
d="M211 355l64 -31c80 -40 116 -79 116 -160v-5c0 -82 -53 -166 -162 -166c-99 0 -163 68 -163 170v14c0 12 10 21 22 21h25c11 0 21 -9 21 -21v-14c0 -46 21 -106 95 -106c71 0 95 66 95 101v3c0 55 -30 78 -78 102l-68 34c-80 40 -112 77 -112 158v21
c0 102 70 166 163 166c106 0 162 -73 162 -170v-14c0 -12 -9 -21 -22 -21h-25c-11 0 -21 9 -21 21v14c0 56 -29 106 -94 106c-58 0 -96 -42 -96 -102v-16c0 -55 30 -82 78 -105zM313 786l-113 -95c-9 -8 -16 -9 -21 -9c-12 0 -21 11 -21 22c0 8 3 13 13 25l59 74
c14 17 26 22 46 22h23c13 0 22 -11 22 -21c0 -6 -2 -13 -8 -18z" />
    <glyph glyph-name="Scircumflex" unicode="&#x15c;" horiz-adv-x="463" 
d="M131 634v-55c0 -62 13 -91 77 -123l76 -37c79 -39 116 -82 116 -174v-70c0 -118 -64 -182 -168 -182s-169 63 -169 182v58c0 12 11 21 22 21h25c12 0 22 -9 22 -21v-42c0 -92 35 -134 100 -134c66 0 100 44 100 134v42c0 70 -29 100 -78 124l-79 39
c-83 41 -112 88 -112 171v82c0 122 66 183 168 183c110 0 169 -73 169 -183v-60c0 -11 -10 -21 -21 -21h-27c-11 0 -21 10 -21 21v45c0 92 -36 134 -100 134c-66 0 -100 -44 -100 -134zM299 885l-46 41c-8 7 -15 10 -22 10s-16 -3 -23 -10l-46 -41c-5 -4 -12 -8 -18 -8
c-14 0 -23 10 -23 22c0 6 4 12 13 23l73 87c7 8 14 13 24 13s16 -5 23 -13l74 -87c9 -11 13 -17 13 -23c0 -12 -9 -22 -24 -22c-6 0 -13 4 -18 8z" />
    <glyph glyph-name="scircumflex" unicode="&#x15d;" horiz-adv-x="451" 
d="M211 355l64 -31c80 -40 116 -79 116 -160v-5c0 -82 -53 -166 -162 -166c-99 0 -163 68 -163 170v14c0 12 10 21 22 21h25c11 0 21 -9 21 -21v-14c0 -46 21 -106 95 -106c71 0 95 66 95 101v3c0 55 -30 78 -78 102l-68 34c-80 40 -112 77 -112 158v21
c0 102 70 166 163 166c106 0 162 -73 162 -170v-14c0 -12 -9 -21 -22 -21h-25c-11 0 -21 9 -21 21v14c0 56 -29 106 -94 106c-58 0 -96 -42 -96 -102v-16c0 -55 30 -82 78 -105zM296 695l-46 41c-8 7 -15 10 -22 10s-16 -3 -23 -10l-46 -41c-5 -4 -12 -8 -18 -8
c-14 0 -23 10 -23 22c0 6 4 12 13 23l73 87c7 8 14 13 24 13s16 -5 23 -13l74 -87c9 -11 13 -17 13 -23c0 -12 -9 -22 -24 -22c-6 0 -13 4 -18 8z" />
    <glyph glyph-name="Scedilla" unicode="&#x15e;" horiz-adv-x="463" 
d="M131 634v-55c0 -62 13 -91 77 -123l76 -37c79 -39 116 -82 116 -174v-70c0 -118 -64 -182 -168 -182s-169 63 -169 182v58c0 12 11 21 22 21h25c12 0 22 -9 22 -21v-42c0 -92 35 -134 100 -134c66 0 100 44 100 134v42c0 70 -29 100 -78 124l-79 39
c-83 41 -112 88 -112 171v82c0 122 66 183 168 183c110 0 169 -73 169 -183v-60c0 -11 -10 -21 -21 -21h-27c-11 0 -21 10 -21 21v45c0 92 -36 134 -100 134c-66 0 -100 -44 -100 -134zM293 -99c0 -46 -35 -72 -80 -72c-9 0 -20 1 -29 3c-12 3 -21 9 -21 22
c0 22 15 20 36 21c20 1 30 12 30 26s-10 25 -30 26c-21 1 -36 -1 -36 21c0 12 8 18 19 21c9 3 21 4 31 4c45 0 80 -26 80 -72z" />
    <glyph glyph-name="scedilla" unicode="&#x15f;" horiz-adv-x="451" 
d="M211 355l64 -31c80 -40 116 -79 116 -160v-5c0 -82 -53 -166 -162 -166c-99 0 -163 68 -163 170v14c0 12 10 21 22 21h25c11 0 21 -9 21 -21v-14c0 -46 21 -106 95 -106c71 0 95 66 95 101v3c0 55 -30 78 -78 102l-68 34c-80 40 -112 77 -112 158v21
c0 102 70 166 163 166c106 0 162 -73 162 -170v-14c0 -12 -9 -21 -22 -21h-25c-11 0 -21 9 -21 21v14c0 56 -29 106 -94 106c-58 0 -96 -42 -96 -102v-16c0 -55 30 -82 78 -105zM290 -99c0 -46 -35 -72 -80 -72c-9 0 -20 1 -29 3c-12 3 -21 9 -21 22c0 22 15 20 36 21
c20 1 30 12 30 26s-10 25 -30 26c-21 1 -36 -1 -36 21c0 12 8 18 19 21c9 3 21 4 31 4c45 0 80 -26 80 -72z" />
    <glyph glyph-name="Scaron" unicode="&#x160;" horiz-adv-x="463" 
d="M131 634v-55c0 -62 13 -91 77 -123l76 -37c79 -39 116 -82 116 -174v-70c0 -118 -64 -182 -168 -182s-169 63 -169 182v58c0 12 11 21 22 21h25c12 0 22 -9 22 -21v-42c0 -92 35 -134 100 -134c66 0 100 44 100 134v42c0 70 -29 100 -78 124l-79 39
c-83 41 -112 88 -112 171v82c0 122 66 183 168 183c110 0 169 -73 169 -183v-60c0 -11 -10 -21 -21 -21h-27c-11 0 -21 10 -21 21v45c0 92 -36 134 -100 134c-66 0 -100 -44 -100 -134zM162 1014l46 -41c8 -7 16 -10 23 -10s15 3 22 10l46 41c5 4 12 8 18 8
c15 0 24 -10 24 -22c0 -6 -4 -12 -13 -23l-74 -87c-7 -8 -13 -13 -23 -13s-17 5 -24 13l-73 87c-9 11 -13 17 -13 23c0 12 9 22 23 22c6 0 13 -4 18 -8z" />
    <glyph glyph-name="scaron" unicode="&#x161;" horiz-adv-x="451" 
d="M211 355l64 -31c80 -40 116 -79 116 -160v-5c0 -82 -53 -166 -162 -166c-99 0 -163 68 -163 170v14c0 12 10 21 22 21h25c11 0 21 -9 21 -21v-14c0 -46 21 -106 95 -106c71 0 95 66 95 101v3c0 55 -30 78 -78 102l-68 34c-80 40 -112 77 -112 158v21
c0 102 70 166 163 166c106 0 162 -73 162 -170v-14c0 -12 -9 -21 -22 -21h-25c-11 0 -21 9 -21 21v14c0 56 -29 106 -94 106c-58 0 -96 -42 -96 -102v-16c0 -55 30 -82 78 -105zM250 783l46 41c5 4 12 8 18 8c15 0 24 -10 24 -22c0 -6 -4 -12 -13 -23l-74 -87
c-7 -8 -13 -13 -23 -13s-17 5 -24 13l-73 87c-9 11 -13 17 -13 23c0 12 9 22 23 22c6 0 13 -4 18 -8l46 -41c7 -7 16 -10 23 -10s14 3 22 10z" />
    <glyph glyph-name="uni0162" unicode="&#x162;" horiz-adv-x="412" 
d="M48 825h316c12 0 21 -9 21 -20v-23c0 -12 -9 -21 -21 -21h-103c-12 0 -21 -8 -21 -21v-720c0 -11 -9 -20 -23 -20h-23c-13 0 -22 9 -22 20v720c0 13 -9 21 -22 21h-102c-11 0 -22 9 -22 21v23c0 11 11 20 22 20zM269 -99c0 -46 -35 -72 -80 -72c-9 0 -20 1 -29 3
c-12 3 -21 9 -21 22c0 22 15 20 36 21c20 1 30 12 30 26s-10 25 -30 26c-21 1 -36 -1 -36 21c0 12 8 18 19 21c9 3 21 4 31 4c45 0 80 -26 80 -72z" />
    <glyph glyph-name="uni0163" unicode="&#x163;" horiz-adv-x="336" 
d="M110 145v407c0 13 -9 20 -21 20h-39c-12 0 -21 9 -21 21v21c0 12 9 21 21 21h39c12 0 21 7 21 20v78c0 12 9 21 22 21h24c12 0 22 -9 22 -21v-78c0 -12 8 -20 20 -20h88c12 0 21 -9 21 -21v-21c0 -12 -9 -21 -21 -21h-88c-12 0 -20 -8 -20 -20v-416c0 -19 4 -40 13 -52
s26 -20 50 -20h44c11 0 20 -9 20 -20v-23c0 -11 -9 -21 -20 -21h-31c-51 0 -86 12 -109 35c-24 23 -35 57 -35 110zM237 -99c0 -46 -35 -72 -80 -72c-9 0 -20 1 -29 3c-12 3 -21 9 -21 22c0 22 15 20 36 21c20 1 30 12 30 26s-10 25 -30 26c-21 1 -36 -1 -36 21
c0 12 8 18 19 21c9 3 21 4 31 4c45 0 80 -26 80 -72z" />
    <glyph glyph-name="Tcaron" unicode="&#x164;" horiz-adv-x="412" 
d="M48 825h316c12 0 21 -9 21 -20v-23c0 -12 -9 -21 -21 -21h-103c-12 0 -21 -8 -21 -21v-720c0 -11 -9 -20 -23 -20h-23c-13 0 -22 9 -22 20v720c0 13 -9 21 -22 21h-102c-11 0 -22 9 -22 21v23c0 11 11 20 22 20zM136 1014l46 -41c8 -7 16 -10 23 -10s15 3 22 10l46 41
c5 4 12 8 18 8c15 0 24 -10 24 -22c0 -6 -4 -12 -13 -23l-74 -87c-7 -8 -13 -13 -23 -13s-17 5 -24 13l-73 87c-9 11 -13 17 -13 23c0 12 9 22 23 22c6 0 13 -4 18 -8z" />
    <glyph glyph-name="tcaron" unicode="&#x165;" horiz-adv-x="336" 
d="M272 801v4c0 12 8 21 21 21h18c14 0 21 -7 21 -21v-5c0 -84 -56 -132 -70 -132c-12 0 -22 8 -22 21c0 11 12 22 20 43c10 26 12 38 12 69zM110 145v407c0 13 -9 20 -21 20h-39c-12 0 -21 9 -21 21v21c0 12 9 21 21 21h39c12 0 21 7 21 20v78c0 12 9 21 22 21h24
c12 0 22 -9 22 -21v-78c0 -12 8 -20 20 -20h88c12 0 21 -9 21 -21v-21c0 -12 -9 -21 -21 -21h-88c-12 0 -20 -8 -20 -20v-416c0 -19 4 -40 13 -52s26 -20 50 -20h44c11 0 20 -9 20 -20v-23c0 -11 -9 -21 -20 -21h-31c-51 0 -86 12 -109 35c-24 23 -35 57 -35 110z" />
    <glyph glyph-name="Tbar" unicode="&#x166;" horiz-adv-x="412" 
d="M242 367v-347c0 -11 -10 -20 -23 -20h-23c-14 0 -23 9 -23 20v347c0 13 -9 20 -21 20h-54c-13 0 -22 9 -22 21v21c0 12 9 21 22 21h54c12 0 21 7 21 20v267c0 13 -8 24 -21 24h-103c-11 0 -23 9 -23 21v23c0 11 12 20 23 20h316c11 0 20 -9 20 -20v-23
c0 -12 -9 -21 -20 -21h-102c-12 0 -21 -11 -21 -24v-267c0 -12 8 -20 20 -20h55c12 0 21 -9 21 -21v-21c0 -12 -9 -21 -21 -21h-55c-12 0 -20 -8 -20 -20z" />
    <glyph glyph-name="tbar" unicode="&#x167;" horiz-adv-x="336" 
d="M178 283v-147c0 -19 4 -40 13 -52s26 -20 50 -20h44c11 0 20 -9 20 -20v-23c0 -11 -9 -21 -20 -21h-31c-51 0 -86 12 -109 35c-24 23 -35 57 -35 110v138c0 13 -9 20 -21 20h-38c-12 0 -21 9 -21 21v21c0 12 9 21 21 21h38c12 0 21 7 21 20v166c0 13 -9 20 -21 20h-39
c-12 0 -21 9 -21 21v21c0 12 9 21 21 21h39c12 0 21 7 21 20v78c0 12 9 21 22 21h24c12 0 22 -9 22 -21v-78c0 -12 8 -20 20 -20h88c12 0 21 -9 21 -21v-21c0 -12 -9 -21 -21 -21h-88c-12 0 -20 -8 -20 -20v-166c0 -12 8 -20 20 -20h66c13 0 22 -9 22 -21v-21
c0 -12 -9 -21 -22 -21h-66c-12 0 -20 -9 -20 -20z" />
    <glyph glyph-name="Utilde" unicode="&#x168;" 
d="M134 804v-613c0 -91 35 -134 100 -134c62 0 100 38 100 134v613c0 11 11 21 22 21h27c11 0 20 -10 20 -21v-625c0 -129 -69 -186 -169 -186c-102 0 -169 59 -169 185v626c0 11 11 21 22 21h25c13 0 22 -10 22 -21zM220 917l-10 9c-10 9 -15 13 -25 13s-18 -7 -21 -18
l-2 -8c-3 -10 -12 -18 -25 -18c-12 0 -23 10 -23 25c0 39 42 77 76 77c24 0 41 -6 59 -21l10 -9c10 -9 15 -13 24 -13c10 0 19 7 22 18l2 8c3 10 11 18 23 18s24 -10 24 -24c0 -40 -39 -78 -74 -78c-23 0 -43 6 -60 21z" />
    <glyph glyph-name="utilde" unicode="&#x169;" horiz-adv-x="458" 
d="M107 40c-26 28 -44 69 -44 138v437c0 11 9 20 20 20h27c11 0 20 -9 20 -20v-424c0 -48 8 -83 29 -106c18 -19 44 -28 70 -28c27 0 52 8 72 27c21 23 27 59 27 107v424c0 11 9 20 22 20h24c11 0 21 -9 21 -20v-587c0 -15 -11 -28 -30 -28c-10 0 -18 4 -26 11l-2 2
c-6 6 -10 8 -17 8c-8 0 -23 -9 -35 -13c-18 -7 -42 -15 -67 -15c-42 0 -80 14 -111 47zM215 730l-10 9c-10 9 -15 13 -25 13s-18 -7 -21 -18l-2 -8c-3 -10 -12 -18 -25 -18c-12 0 -23 10 -23 25c0 39 42 77 76 77c24 0 42 -6 60 -21l10 -9c10 -9 15 -13 24 -13
c10 0 19 7 22 18l2 8c3 10 11 18 23 18s24 -10 24 -24c0 -40 -39 -78 -74 -78c-23 0 -44 6 -61 21z" />
    <glyph glyph-name="Umacron" unicode="&#x16a;" 
d="M134 804v-613c0 -91 35 -134 100 -134c62 0 100 38 100 134v613c0 11 11 21 22 21h27c11 0 20 -10 20 -21v-625c0 -129 -69 -186 -169 -186c-102 0 -169 59 -169 185v626c0 11 11 21 22 21h25c13 0 22 -10 22 -21zM129 950h209c13 0 22 -8 22 -20v-16
c0 -12 -9 -20 -22 -20h-209c-12 0 -21 8 -21 20v16c0 12 9 20 21 20z" />
    <glyph glyph-name="umacron" unicode="&#x16b;" horiz-adv-x="458" 
d="M107 40c-26 28 -44 69 -44 138v437c0 11 9 20 20 20h27c11 0 20 -9 20 -20v-424c0 -48 8 -83 29 -106c18 -19 44 -28 70 -28c27 0 52 8 72 27c21 23 27 59 27 107v424c0 11 9 20 22 20h24c11 0 21 -9 21 -20v-587c0 -15 -11 -28 -30 -28c-10 0 -18 4 -26 11l-2 2
c-6 6 -10 8 -17 8c-8 0 -23 -9 -35 -13c-18 -7 -42 -15 -67 -15c-42 0 -80 14 -111 47zM124 783h209c13 0 22 -8 22 -20v-16c0 -12 -9 -20 -22 -20h-209c-12 0 -21 8 -21 20v16c0 12 9 20 21 20z" />
    <glyph glyph-name="Ubreve" unicode="&#x16c;" 
d="M134 804v-613c0 -91 35 -134 100 -134c62 0 100 38 100 134v613c0 11 11 21 22 21h27c11 0 20 -10 20 -21v-625c0 -129 -69 -186 -169 -186c-102 0 -169 59 -169 185v626c0 11 11 21 22 21h25c13 0 22 -10 22 -21zM234 880c-50 0 -98 33 -98 92c0 31 5 49 28 49
c7 0 13 -3 17 -8s6 -13 6 -22v-5c0 -29 22 -46 47 -46c26 0 47 17 47 46v5c0 9 2 17 6 22s11 8 18 8c22 0 27 -18 27 -49c0 -59 -46 -92 -98 -92z" />
    <glyph glyph-name="ubreve" unicode="&#x16d;" horiz-adv-x="458" 
d="M107 40c-26 28 -44 69 -44 138v437c0 11 9 20 20 20h27c11 0 20 -9 20 -20v-424c0 -48 8 -83 29 -106c18 -19 44 -28 70 -28c27 0 52 8 72 27c21 23 27 59 27 107v424c0 11 9 20 22 20h24c11 0 21 -9 21 -20v-587c0 -15 -11 -28 -30 -28c-10 0 -18 4 -26 11l-2 2
c-6 6 -10 8 -17 8c-8 0 -23 -9 -35 -13c-18 -7 -42 -15 -67 -15c-42 0 -80 14 -111 47zM229 691c-50 0 -98 33 -98 92c0 31 5 49 28 49c7 0 13 -3 17 -8s6 -13 6 -22v-5c0 -29 22 -46 47 -46c26 0 47 17 47 46v5c0 9 2 17 6 22s11 8 18 8c22 0 27 -18 27 -49
c0 -59 -46 -92 -98 -92z" />
    <glyph glyph-name="Uring" unicode="&#x16e;" 
d="M134 804v-613c0 -91 35 -134 100 -134c62 0 100 38 100 134v613c0 11 11 21 22 21h27c11 0 20 -10 20 -21v-625c0 -129 -69 -186 -169 -186c-102 0 -169 59 -169 185v626c0 11 11 21 22 21h25c13 0 22 -10 22 -21zM206 946c0 -15 12 -27 27 -27c16 0 29 12 29 27
c0 16 -13 28 -29 28c-15 0 -27 -12 -27 -28zM158 946c0 41 33 76 75 76c43 0 77 -35 77 -76s-34 -75 -77 -75c-42 0 -75 34 -75 75z" />
    <glyph glyph-name="uring" unicode="&#x16f;" horiz-adv-x="458" 
d="M107 40c-26 28 -44 69 -44 138v437c0 11 9 20 20 20h27c11 0 20 -9 20 -20v-424c0 -48 8 -83 29 -106c18 -19 44 -28 70 -28c27 0 52 8 72 27c21 23 27 59 27 107v424c0 11 9 20 22 20h24c11 0 21 -9 21 -20v-587c0 -15 -11 -28 -30 -28c-10 0 -18 4 -26 11l-2 2
c-6 6 -10 8 -17 8c-8 0 -23 -9 -35 -13c-18 -7 -42 -15 -67 -15c-42 0 -80 14 -111 47zM201 756c0 -15 13 -27 28 -27s29 12 29 27c0 16 -14 28 -29 28s-28 -12 -28 -28zM153 756c0 41 34 76 76 76s77 -35 77 -76s-35 -75 -77 -75s-76 34 -76 75z" />
    <glyph glyph-name="Uhungarumlaut" unicode="&#x170;" 
d="M134 804v-613c0 -91 35 -134 100 -134c62 0 100 38 100 134v613c0 11 11 21 22 21h27c11 0 20 -10 20 -21v-625c0 -129 -69 -186 -169 -186c-102 0 -169 59 -169 185v626c0 11 11 21 22 21h25c13 0 22 -10 22 -21zM406 981l-120 -96c-5 -4 -11 -8 -18 -8
c-14 0 -23 10 -23 22c0 6 2 12 12 23l69 80c14 16 21 20 42 20h26c13 0 22 -11 22 -21c0 -7 -2 -13 -10 -20zM263 981l-120 -96c-5 -4 -11 -8 -17 -8c-15 0 -24 10 -24 22c0 6 2 12 12 23l69 80c14 16 21 20 43 20h25c13 0 23 -11 23 -21c0 -7 -2 -13 -11 -20z" />
    <glyph glyph-name="uhungarumlaut" unicode="&#x171;" horiz-adv-x="458" 
d="M109 40c-26 28 -44 69 -44 138v437c0 11 9 20 20 20h27c11 0 20 -9 20 -20v-424c0 -48 8 -83 29 -106c18 -19 44 -28 70 -28c27 0 52 8 72 27c21 23 27 59 27 107v424c0 11 9 20 22 20h24c11 0 21 -9 21 -20v-587c0 -15 -11 -28 -30 -28c-10 0 -18 4 -26 11l-2 2
c-6 6 -10 8 -17 8c-8 0 -23 -9 -35 -13c-18 -7 -42 -15 -67 -15c-42 0 -80 14 -111 47zM406 784l-120 -96c-5 -4 -11 -8 -18 -8c-14 0 -23 10 -23 22c0 6 2 12 12 23l69 80c14 16 21 20 42 20h26c13 0 22 -11 22 -21c0 -7 -2 -13 -10 -20zM263 784l-120 -96
c-5 -4 -11 -8 -17 -8c-15 0 -24 10 -24 22c0 6 2 12 12 23l69 80c14 16 21 20 43 20h25c13 0 23 -11 23 -21c0 -7 -2 -13 -11 -20z" />
    <glyph glyph-name="Uogonek" unicode="&#x172;" 
d="M204 -5l-7 1c-81 11 -132 72 -132 182v626c0 11 11 21 22 21h25c13 0 22 -10 22 -21v-613c0 -91 35 -134 100 -134c62 0 99 38 99 134v613c0 11 11 21 22 21h26c11 0 20 -10 20 -21v-625c0 -43 -7 -78 -21 -106c-18 -35 -66 -82 -87 -102l-18 -17
c-12 -11 -23 -22 -23 -37s13 -25 26 -25c9 0 17 10 28 10c10 0 22 -9 22 -22c0 -14 -18 -45 -64 -45c-42 0 -74 21 -74 62c0 43 37 51 37 75c0 12 -9 21 -23 23z" />
    <glyph glyph-name="uogonek" unicode="&#x173;" horiz-adv-x="458" 
d="M258 -1c-14 -3 -29 -5 -45 -5c-38 0 -77 12 -106 45c-25 28 -43 70 -43 139v437c0 11 10 20 21 20h25c12 0 21 -9 21 -20v-424c0 -48 7 -84 28 -107c19 -19 43 -27 70 -27c26 0 51 8 70 27c21 23 28 59 28 107v424c0 11 9 20 21 20h26c11 0 20 -9 20 -20v-590
c0 -20 -6 -34 -29 -53l-18 -16c-15 -14 -22 -22 -22 -37s13 -25 25 -25c9 0 17 10 29 10c10 0 21 -9 21 -22c0 -14 -16 -45 -62 -45c-43 0 -75 24 -75 65c0 46 37 57 37 79c0 12 -10 21 -22 21c-5 0 -11 -1 -20 -3z" />
    <glyph glyph-name="Wcircumflex" unicode="&#x174;" horiz-adv-x="708" 
d="M65 176v629c0 11 11 20 22 20h25c13 0 22 -9 22 -20v-630c0 -79 32 -118 93 -118c59 0 93 36 93 118v630c0 11 11 20 22 20h27c11 0 20 -9 20 -20v-630c0 -79 32 -118 93 -118c59 0 93 36 93 118v630c0 11 10 20 22 20h26c12 0 21 -9 21 -20v-629
c0 -139 -81 -183 -162 -183c-35 0 -69 11 -95 28l-10 7c-7 5 -15 9 -24 9c-8 0 -15 -4 -22 -9l-10 -7c-26 -17 -59 -28 -95 -28c-85 0 -161 49 -161 183zM423 885l-46 41c-8 7 -15 10 -22 10s-16 -3 -23 -10l-46 -41c-5 -4 -12 -8 -18 -8c-14 0 -23 10 -23 22
c0 6 4 12 13 23l73 87c7 8 14 13 24 13s16 -5 23 -13l74 -87c9 -11 13 -17 13 -23c0 -12 -9 -22 -24 -22c-6 0 -13 4 -18 8z" />
    <glyph glyph-name="wcircumflex" unicode="&#x175;" horiz-adv-x="693" 
d="M63 176v438c0 10 9 21 21 21h25c12 0 21 -10 21 -21v-435c0 -44 7 -71 21 -90c17 -21 42 -32 74 -32c25 0 49 10 64 30c14 20 24 49 24 92v436c0 11 9 20 20 20h26c12 0 21 -9 21 -20v-436c0 -44 7 -71 21 -90c17 -21 42 -32 74 -32c25 0 49 10 64 30c14 20 24 49 24 92
v436c0 11 9 20 20 20h27c11 0 20 -9 20 -20v-439c0 -136 -81 -183 -156 -183c-34 0 -70 10 -94 27l-10 7c-7 5 -15 9 -23 9s-15 -4 -21 -9l-11 -7c-25 -17 -59 -27 -93 -27c-81 0 -159 45 -159 183zM415 695l-46 41c-8 7 -15 10 -22 10s-16 -3 -23 -10l-46 -41
c-5 -4 -12 -8 -18 -8c-14 0 -23 10 -23 22c0 6 4 12 13 23l73 87c7 8 14 13 24 13s16 -5 23 -13l74 -87c9 -11 13 -17 13 -23c0 -12 -9 -22 -24 -22c-6 0 -13 4 -18 8z" />
    <glyph glyph-name="Ycircumflex" unicode="&#x176;" 
d="M201 20v289c0 9 -4 18 -13 22l-15 6c-73 28 -108 87 -108 180v288c0 11 12 20 23 20h25c12 0 21 -9 21 -20v-277c0 -48 6 -85 29 -107c20 -19 43 -28 72 -28c26 0 52 9 70 28c23 22 29 59 29 107v277c0 11 10 20 22 20h26c12 0 21 -9 21 -20v-288
c0 -102 -56 -165 -105 -180l-13 -4c-9 -3 -16 -9 -16 -21v-292c0 -11 -10 -20 -22 -20h-24c-13 0 -22 9 -22 20zM302 885l-46 41c-8 7 -15 10 -22 10s-16 -3 -23 -10l-46 -41c-5 -4 -12 -8 -18 -8c-14 0 -23 10 -23 22c0 6 4 12 13 23l73 87c7 8 14 13 24 13s16 -5 23 -13
l74 -87c9 -11 13 -17 13 -23c0 -12 -9 -22 -24 -22c-6 0 -13 4 -18 8z" />
    <glyph glyph-name="ycircumflex" unicode="&#x177;" horiz-adv-x="458" 
d="M328 13v8c0 9 1 24 1 28c0 10 -2 15 -5 19s-8 7 -15 7c-6 0 -10 -1 -13 -2c-17 -5 -39 -19 -79 -19c-43 0 -85 18 -113 51c-25 31 -41 75 -41 136v374c0 11 10 20 21 20h25c12 0 21 -9 21 -20v-367c0 -45 10 -76 25 -97c17 -22 42 -33 69 -33c72 0 104 42 104 121v376
c0 11 9 20 21 20h26c11 0 20 -9 20 -20v-573c0 -75 -8 -106 -23 -134c-27 -52 -78 -79 -144 -79c-87 0 -149 51 -162 143v9c0 12 9 21 20 21h23c13 0 22 -8 24 -21l1 -8c10 -52 52 -80 96 -80c55 0 98 36 98 120zM297 695l-46 41c-8 7 -15 10 -22 10s-16 -3 -23 -10l-46 -41
c-5 -4 -12 -8 -18 -8c-14 0 -23 10 -23 22c0 6 4 12 13 23l73 87c7 8 14 13 24 13s16 -5 23 -13l74 -87c9 -11 13 -17 13 -23c0 -12 -9 -22 -24 -22c-6 0 -13 4 -18 8z" />
    <glyph glyph-name="Ydieresis" unicode="&#x178;" 
d="M201 20v289c0 9 -4 18 -13 22l-15 6c-73 28 -108 87 -108 180v288c0 11 12 20 23 20h25c12 0 21 -9 21 -20v-277c0 -48 6 -85 29 -107c20 -19 43 -28 72 -28c26 0 52 9 70 28c23 22 29 59 29 107v277c0 11 10 20 22 20h26c12 0 21 -9 21 -20v-288
c0 -102 -56 -165 -105 -180l-13 -4c-9 -3 -16 -9 -16 -21v-292c0 -11 -10 -20 -22 -20h-24c-13 0 -22 9 -22 20zM172 938v-30c0 -13 -9 -22 -21 -22h-32c-12 0 -21 9 -21 22v30c0 12 9 21 21 21h32c12 0 21 -9 21 -21zM370 938v-30c0 -13 -9 -22 -22 -22h-31
c-12 0 -22 9 -22 22v30c0 12 10 21 22 21h31c13 0 22 -9 22 -21z" />
    <glyph glyph-name="Zacute" unicode="&#x179;" horiz-adv-x="406" 
d="M77 131l191 589c1 3 5 18 5 21c0 11 -9 20 -24 20h-169c-12 0 -21 8 -21 20v23c0 12 9 21 21 21h243c14 0 24 -11 24 -23v-24c0 -19 -8 -51 -19 -84l-190 -589c-1 -3 -3 -18 -3 -21c0 -11 7 -20 22 -20h168c13 0 22 -8 22 -20v-23c0 -12 -9 -21 -22 -21h-242
c-14 0 -24 11 -24 23v24c0 19 8 51 18 84zM288 979l-137 -98c-6 -4 -12 -6 -17 -6c-12 0 -22 10 -22 21c0 9 4 12 17 26l72 78c14 15 21 18 42 18h33c13 0 21 -11 21 -21c0 -6 -2 -13 -9 -18z" />
    <glyph glyph-name="zacute" unicode="&#x17a;" horiz-adv-x="386" 
d="M84 131l158 400c1 3 4 16 4 19c0 11 -8 22 -24 22h-139c-13 0 -22 8 -22 20v22c0 12 9 21 22 21h224c13 0 22 -9 22 -21v-26c0 -19 -13 -52 -26 -84l-158 -400c-1 -3 -4 -16 -4 -19c0 -11 8 -22 23 -22h140c12 0 21 -8 21 -20v-22c0 -12 -9 -21 -21 -21h-224
c-14 0 -23 9 -23 21v26c0 19 13 52 27 84zM278 786l-113 -95c-9 -8 -16 -9 -21 -9c-12 0 -21 11 -21 22c0 8 3 13 13 25l59 74c14 17 26 22 46 22h23c13 0 22 -11 22 -21c0 -6 -2 -13 -8 -18z" />
    <glyph glyph-name="Zdotaccent" unicode="&#x17b;" horiz-adv-x="406" 
d="M77 131l191 589c1 3 5 18 5 21c0 11 -9 20 -24 20h-169c-12 0 -21 8 -21 20v23c0 12 9 21 21 21h243c14 0 24 -11 24 -23v-24c0 -19 -8 -51 -19 -84l-190 -589c-1 -3 -3 -18 -3 -21c0 -11 7 -20 22 -20h168c13 0 22 -8 22 -20v-23c0 -12 -9 -21 -22 -21h-242
c-14 0 -24 11 -24 23v24c0 19 8 51 18 84zM166 911v33c0 12 9 21 21 21h32c12 0 21 -9 21 -21v-33c0 -12 -9 -21 -21 -21h-32c-12 0 -21 9 -21 21z" />
    <glyph glyph-name="zdotaccent" unicode="&#x17c;" horiz-adv-x="386" 
d="M84 131l158 400c1 3 4 16 4 19c0 11 -8 22 -24 22h-139c-13 0 -22 8 -22 20v22c0 12 9 21 22 21h224c13 0 22 -9 22 -21v-26c0 -19 -13 -52 -26 -84l-158 -400c-1 -3 -4 -16 -4 -19c0 -11 8 -22 23 -22h140c12 0 21 -8 21 -20v-22c0 -12 -9 -21 -21 -21h-224
c-14 0 -23 9 -23 21v26c0 19 13 52 27 84zM153 771v33c0 12 9 21 21 21h32c12 0 21 -9 21 -21v-33c0 -12 -9 -21 -21 -21h-32c-12 0 -21 9 -21 21z" />
    <glyph glyph-name="Zcaron" unicode="&#x17d;" horiz-adv-x="406" 
d="M134 1014l46 -41c8 -7 16 -10 23 -10s15 3 22 10l46 41c5 4 12 8 18 8c15 0 24 -10 24 -22c0 -6 -4 -12 -13 -23l-74 -87c-7 -8 -13 -13 -23 -13s-17 5 -24 13l-73 87c-9 11 -13 17 -13 23c0 12 9 22 23 22c6 0 13 -4 18 -8zM77 131l191 589c1 3 5 18 5 21
c0 11 -9 20 -24 20h-169c-12 0 -21 8 -21 20v23c0 12 9 21 21 21h243c14 0 24 -11 24 -23v-24c0 -19 -8 -51 -19 -84l-190 -589c-1 -3 -3 -18 -3 -21c0 -11 7 -20 22 -20h168c13 0 22 -8 22 -20v-23c0 -12 -9 -21 -22 -21h-242c-14 0 -24 11 -24 23v24c0 19 8 51 18 84z" />
    <glyph glyph-name="zcaron" unicode="&#x17e;" horiz-adv-x="386" 
d="M84 131l158 400c1 3 4 16 4 19c0 11 -8 22 -24 22h-139c-13 0 -22 8 -22 20v22c0 12 9 21 22 21h224c13 0 22 -9 22 -21v-26c0 -19 -13 -52 -26 -84l-158 -400c-1 -3 -4 -16 -4 -19c0 -11 8 -22 23 -22h140c12 0 21 -8 21 -20v-22c0 -12 -9 -21 -21 -21h-224
c-14 0 -23 9 -23 21v26c0 19 13 52 27 84zM219 783l46 41c5 4 12 8 18 8c15 0 24 -10 24 -22c0 -6 -4 -12 -13 -23l-74 -87c-7 -8 -13 -13 -23 -13s-17 5 -24 13l-73 87c-9 11 -13 17 -13 23c0 12 9 22 23 22c6 0 13 -4 18 -8l46 -41c7 -7 16 -10 23 -10s14 3 22 10z" />
    <glyph glyph-name="longs" unicode="&#x17f;" horiz-adv-x="273" 
d="M182 690v-669c0 -12 -9 -21 -21 -21h-24c-13 0 -22 9 -22 21v531c0 13 -9 20 -21 20h-44c-12 0 -21 9 -21 21v21c0 12 9 21 21 21h44c12 0 21 7 21 20v25c0 53 11 87 35 110c23 23 58 35 109 35h32c11 0 20 -10 20 -21v-23c0 -11 -9 -20 -20 -20h-45
c-24 0 -41 -8 -50 -20s-14 -32 -14 -51z" />
    <glyph glyph-name="uni0218" unicode="&#x218;" horiz-adv-x="463" 
d="M131 634v-55c0 -62 13 -91 77 -123l76 -37c79 -39 116 -82 116 -174v-70c0 -118 -64 -182 -168 -182s-169 63 -169 182v58c0 12 11 21 22 21h25c12 0 22 -9 22 -21v-42c0 -92 35 -134 100 -134c66 0 100 44 100 134v42c0 70 -29 100 -78 124l-79 39
c-83 41 -112 88 -112 171v82c0 122 66 183 168 183c110 0 169 -73 169 -183v-60c0 -11 -10 -21 -21 -21h-27c-11 0 -21 10 -21 21v45c0 92 -36 134 -100 134c-66 0 -100 -44 -100 -134zM232 -26h17c14 0 24 -10 24 -22c0 -50 -32 -100 -73 -119c-7 -3 -13 -4 -18 -4
c-13 0 -24 8 -24 24c0 12 8 19 16 26c19 16 33 43 33 72v1c0 12 10 22 25 22z" />
    <glyph glyph-name="uni0219" unicode="&#x219;" horiz-adv-x="451" 
d="M211 355l64 -31c80 -40 116 -79 116 -160v-5c0 -82 -53 -166 -162 -166c-99 0 -163 68 -163 170v14c0 12 10 21 22 21h25c11 0 21 -9 21 -21v-14c0 -46 21 -106 95 -106c71 0 95 66 95 101v3c0 55 -30 78 -78 102l-68 34c-80 40 -112 77 -112 158v21
c0 102 70 166 163 166c106 0 162 -73 162 -170v-14c0 -12 -9 -21 -22 -21h-25c-11 0 -21 9 -21 21v14c0 56 -29 106 -94 106c-58 0 -96 -42 -96 -102v-16c0 -55 30 -82 78 -105zM226 -26h17c14 0 24 -10 24 -22c0 -50 -32 -100 -73 -119c-7 -3 -13 -4 -18 -4
c-13 0 -24 8 -24 24c0 12 8 19 16 26c19 16 33 43 33 72v1c0 12 10 22 25 22z" />
    <glyph glyph-name="uni021A" unicode="&#x21a;" horiz-adv-x="412" 
d="M48 825h316c12 0 21 -9 21 -20v-23c0 -12 -9 -21 -21 -21h-103c-12 0 -21 -8 -21 -21v-720c0 -11 -9 -20 -23 -20h-23c-13 0 -22 9 -22 20v720c0 13 -9 21 -22 21h-102c-11 0 -22 9 -22 21v23c0 11 11 20 22 20zM198 -26h17c14 0 24 -10 24 -22c0 -50 -32 -100 -73 -119
c-7 -3 -13 -4 -18 -4c-13 0 -24 8 -24 24c0 12 8 19 16 26c19 16 33 43 33 72v1c0 12 10 22 25 22z" />
    <glyph glyph-name="uni021B" unicode="&#x21b;" horiz-adv-x="364" 
d="M105 145v407c0 13 -9 20 -21 20h-39c-12 0 -21 9 -21 21v21c0 12 9 21 21 21h39c12 0 21 7 21 20v78c0 12 9 21 22 21h24c12 0 22 -9 22 -21v-78c0 -12 8 -20 20 -20h88c12 0 21 -9 21 -21v-21c0 -12 -9 -21 -21 -21h-88c-12 0 -20 -8 -20 -20v-416c0 -19 4 -40 13 -52
s26 -20 50 -20h44c11 0 20 -9 20 -20v-23c0 -11 -9 -21 -20 -21h-31c-51 0 -86 12 -109 35c-24 23 -35 57 -35 110zM173 -26h17c14 0 24 -10 24 -22c0 -50 -32 -100 -73 -119c-7 -3 -13 -4 -18 -4c-13 0 -24 8 -24 24c0 12 8 19 16 26c19 16 33 43 33 72v1c0 12 10 22 25 22
z" />
    <glyph glyph-name="Wgrave" unicode="&#x1e80;" horiz-adv-x="708" 
d="M65 176v629c0 11 11 20 22 20h25c13 0 22 -9 22 -20v-630c0 -79 32 -118 93 -118c59 0 93 36 93 118v630c0 11 11 20 22 20h27c11 0 20 -9 20 -20v-630c0 -79 32 -118 93 -118c59 0 93 36 93 118v630c0 11 10 20 22 20h26c12 0 21 -9 21 -20v-629
c0 -139 -81 -183 -162 -183c-35 0 -69 11 -95 28l-10 7c-7 5 -15 9 -24 9c-8 0 -15 -4 -22 -9l-10 -7c-26 -17 -59 -28 -95 -28c-85 0 -161 49 -161 183zM348 881l-136 98c-8 5 -10 12 -10 18c0 10 9 21 22 21h32c22 0 28 -3 42 -18l73 -78c13 -14 16 -17 16 -26
c0 -11 -9 -21 -21 -21c-5 0 -12 2 -18 6z" />
    <glyph glyph-name="wgrave" unicode="&#x1e81;" horiz-adv-x="693" 
d="M63 176v438c0 10 9 21 21 21h25c12 0 21 -10 21 -21v-435c0 -44 7 -71 21 -90c17 -21 42 -32 74 -32c25 0 49 10 64 30c14 20 24 49 24 92v436c0 11 9 20 20 20h26c12 0 21 -9 21 -20v-436c0 -44 7 -71 21 -90c17 -21 42 -32 74 -32c25 0 49 10 64 30c14 20 24 49 24 92
v436c0 11 9 20 20 20h27c11 0 20 -9 20 -20v-439c0 -136 -81 -183 -156 -183c-34 0 -70 10 -94 27l-10 7c-7 5 -15 9 -23 9s-15 -4 -21 -9l-11 -7c-25 -17 -59 -27 -93 -27c-81 0 -159 45 -159 183zM327 691l-113 95c-6 5 -8 12 -8 18c0 10 9 21 22 21h23c20 0 32 -5 46 -22
l59 -74c10 -12 13 -17 13 -25c0 -11 -9 -22 -21 -22c-5 0 -12 1 -21 9z" />
    <glyph glyph-name="Wacute" unicode="&#x1e82;" horiz-adv-x="708" 
d="M65 176v629c0 11 11 20 22 20h25c13 0 22 -9 22 -20v-630c0 -79 32 -118 93 -118c59 0 93 36 93 118v630c0 11 11 20 22 20h27c11 0 20 -9 20 -20v-630c0 -79 32 -118 93 -118c59 0 93 36 93 118v630c0 11 10 20 22 20h26c12 0 21 -9 21 -20v-629
c0 -139 -81 -183 -162 -183c-35 0 -69 11 -95 28l-10 7c-7 5 -15 9 -24 9c-8 0 -15 -4 -22 -9l-10 -7c-26 -17 -59 -28 -95 -28c-85 0 -161 49 -161 183zM493 979l-137 -98c-6 -4 -12 -6 -17 -6c-12 0 -22 10 -22 21c0 9 4 12 17 26l72 78c14 15 21 18 42 18h33
c13 0 21 -11 21 -21c0 -6 -2 -13 -9 -18z" />
    <glyph glyph-name="wacute" unicode="&#x1e83;" horiz-adv-x="693" 
d="M63 176v438c0 10 9 21 21 21h25c12 0 21 -10 21 -21v-435c0 -44 7 -71 21 -90c17 -21 42 -32 74 -32c25 0 49 10 64 30c14 20 24 49 24 92v436c0 11 9 20 20 20h26c12 0 21 -9 21 -20v-436c0 -44 7 -71 21 -90c17 -21 42 -32 74 -32c25 0 49 10 64 30c14 20 24 49 24 92
v436c0 11 9 20 20 20h27c11 0 20 -9 20 -20v-439c0 -136 -81 -183 -156 -183c-34 0 -70 10 -94 27l-10 7c-7 5 -15 9 -23 9s-15 -4 -21 -9l-11 -7c-25 -17 -59 -27 -93 -27c-81 0 -159 45 -159 183zM465 786l-113 -95c-9 -8 -16 -9 -21 -9c-12 0 -21 11 -21 22
c0 8 3 13 13 25l59 74c14 17 26 22 46 22h23c13 0 22 -11 22 -21c0 -6 -2 -13 -8 -18z" />
    <glyph glyph-name="Wdieresis" unicode="&#x1e84;" horiz-adv-x="708" 
d="M65 176v629c0 11 11 20 22 20h25c13 0 22 -9 22 -20v-630c0 -79 32 -118 93 -118c59 0 93 36 93 118v630c0 11 11 20 22 20h27c11 0 20 -9 20 -20v-630c0 -79 32 -118 93 -118c59 0 93 36 93 118v630c0 11 10 20 22 20h26c12 0 21 -9 21 -20v-629
c0 -139 -81 -183 -162 -183c-35 0 -69 11 -95 28l-10 7c-7 5 -15 9 -24 9c-8 0 -15 -4 -22 -9l-10 -7c-26 -17 -59 -28 -95 -28c-85 0 -161 49 -161 183zM294 938v-30c0 -13 -9 -22 -21 -22h-32c-12 0 -21 9 -21 22v30c0 12 9 21 21 21h32c12 0 21 -9 21 -21zM492 938v-30
c0 -13 -9 -22 -22 -22h-31c-12 0 -22 9 -22 22v30c0 12 10 21 22 21h31c13 0 22 -9 22 -21z" />
    <glyph glyph-name="wdieresis" unicode="&#x1e85;" horiz-adv-x="693" 
d="M63 176v438c0 10 9 21 21 21h25c12 0 21 -10 21 -21v-435c0 -44 7 -71 21 -90c17 -21 42 -32 74 -32c25 0 49 10 64 30c14 20 24 49 24 92v436c0 11 9 20 20 20h26c12 0 21 -9 21 -20v-436c0 -44 7 -71 21 -90c17 -21 42 -32 74 -32c25 0 49 10 64 30c14 20 24 49 24 92
v436c0 11 9 20 20 20h27c11 0 20 -9 20 -20v-439c0 -136 -81 -183 -156 -183c-34 0 -70 10 -94 27l-10 7c-7 5 -15 9 -23 9s-15 -4 -21 -9l-11 -7c-25 -17 -59 -27 -93 -27c-81 0 -159 45 -159 183zM284 774v-30c0 -13 -9 -22 -21 -22h-32c-12 0 -21 9 -21 22v30
c0 12 9 21 21 21h32c12 0 21 -9 21 -21zM482 774v-30c0 -13 -9 -22 -21 -22h-32c-12 0 -22 9 -22 22v30c0 12 10 21 22 21h32c12 0 21 -9 21 -21z" />
    <glyph glyph-name="yacute" unicode="&#xfd;" horiz-adv-x="458" 
d="M328 13v8c0 9 1 24 1 28c0 10 -2 15 -5 19s-8 7 -15 7c-6 0 -10 -1 -13 -2c-17 -5 -39 -19 -79 -19c-43 0 -85 18 -113 51c-25 31 -41 75 -41 136v374c0 11 10 20 21 20h25c12 0 21 -9 21 -20v-367c0 -45 10 -76 25 -97c17 -22 42 -33 69 -33c72 0 104 42 104 121v376
c0 11 9 20 21 20h26c11 0 20 -9 20 -20v-573c0 -75 -8 -106 -23 -134c-27 -52 -78 -79 -144 -79c-87 0 -149 51 -162 143v9c0 12 9 21 20 21h23c13 0 22 -8 24 -21l1 -8c10 -52 52 -80 96 -80c55 0 98 36 98 120zM304 786l-113 -95c-9 -8 -16 -9 -21 -9c-12 0 -21 11 -21 22
c0 8 3 13 13 25l59 74c14 17 26 22 46 22h23c13 0 22 -11 22 -21c0 -6 -2 -13 -8 -18z" />
    <glyph glyph-name="Agrave" unicode="&#xc0;" 
d="M134 634v-192c0 -13 11 -22 21 -22h157c13 0 22 10 22 22v192c0 90 -35 134 -100 134s-100 -44 -100 -134zM403 649v-628c0 -11 -10 -21 -21 -21h-27c-11 0 -21 10 -21 21v313c0 12 -8 22 -22 22h-157c-10 0 -21 -9 -21 -22v-313c0 -11 -9 -21 -22 -21h-25
c-11 0 -22 10 -22 21v628c0 129 76 183 169 183s169 -54 169 -183zM260 881l-136 98c-8 5 -10 12 -10 18c0 10 9 21 22 21h32c22 0 28 -3 42 -18l73 -78c13 -14 16 -17 16 -26c0 -11 -9 -21 -21 -21c-5 0 -12 2 -18 6z" />
    <glyph glyph-name="Aacute" unicode="&#xc1;" horiz-adv-x="457" 
d="M129 634v-192c0 -13 11 -22 21 -22h157c13 0 22 10 22 22v192c0 90 -35 134 -100 134s-100 -44 -100 -134zM398 649v-628c0 -11 -10 -21 -21 -21h-27c-11 0 -21 10 -21 21v313c0 12 -8 22 -22 22h-157c-10 0 -21 -9 -21 -22v-313c0 -11 -9 -21 -22 -21h-25
c-11 0 -22 10 -22 21v628c0 129 76 183 169 183s169 -54 169 -183zM328 979l-137 -98c-6 -4 -12 -6 -17 -6c-12 0 -22 10 -22 21c0 9 4 12 17 26l72 78c14 15 21 18 42 18h33c13 0 21 -11 21 -21c0 -6 -2 -13 -9 -18z" />
    <glyph glyph-name="Acircumflex" unicode="&#xc2;" horiz-adv-x="457" 
d="M134 634v-192c0 -13 11 -22 21 -22h157c13 0 22 10 22 22v192c0 90 -35 134 -100 134s-100 -44 -100 -134zM403 649v-628c0 -11 -10 -21 -21 -21h-27c-11 0 -21 10 -21 21v313c0 12 -8 22 -22 22h-157c-10 0 -21 -9 -21 -22v-313c0 -11 -9 -21 -22 -21h-25
c-11 0 -22 10 -22 21v628c0 129 76 183 169 183s169 -54 169 -183zM302 885l-46 41c-8 7 -15 10 -22 10s-16 -3 -23 -10l-46 -41c-5 -4 -12 -8 -18 -8c-14 0 -23 10 -23 22c0 6 4 12 13 23l73 87c7 8 14 13 24 13s16 -5 23 -13l74 -87c9 -11 13 -17 13 -23
c0 -12 -9 -22 -24 -22c-6 0 -13 4 -18 8z" />
    <glyph glyph-name="Atilde" unicode="&#xc3;" 
d="M134 634v-192c0 -13 11 -22 21 -22h157c13 0 22 10 22 22v192c0 90 -35 134 -100 134s-100 -44 -100 -134zM403 649v-628c0 -11 -10 -21 -21 -21h-27c-11 0 -21 10 -21 21v313c0 12 -8 22 -22 22h-157c-10 0 -21 -9 -21 -22v-313c0 -11 -9 -21 -22 -21h-25
c-11 0 -22 10 -22 21v628c0 129 76 183 169 183s169 -54 169 -183zM220 917l-10 9c-10 9 -15 13 -25 13s-18 -7 -21 -18l-2 -8c-3 -10 -12 -18 -25 -18c-12 0 -23 10 -23 25c0 39 42 77 76 77c24 0 41 -6 59 -21l10 -9c10 -9 15 -13 24 -13c10 0 19 7 22 18l2 8
c3 10 11 18 23 18s24 -10 24 -24c0 -40 -39 -78 -74 -78c-23 0 -43 6 -60 21z" />
    <glyph glyph-name="Egrave" unicode="&#xc8;" horiz-adv-x="367" 
d="M154 64h143c11 0 21 -10 21 -21v-22c0 -12 -10 -21 -21 -21h-210c-11 0 -22 10 -22 21v783c0 11 11 21 22 21h210c11 0 21 -11 21 -22v-21c0 -11 -9 -21 -21 -21h-143c-13 0 -20 -7 -20 -20v-271c0 -13 7 -20 20 -20h139c12 0 22 -10 22 -21v-21c0 -12 -10 -22 -22 -22
h-139c-13 0 -20 -7 -20 -20v-282c0 -13 7 -20 20 -20zM241 881l-136 98c-8 5 -10 12 -10 18c0 10 9 21 22 21h32c22 0 28 -3 42 -18l73 -78c13 -14 16 -17 16 -26c0 -11 -9 -21 -21 -21c-5 0 -12 2 -18 6z" />
    <glyph glyph-name="Ecircumflex" unicode="&#xca;" horiz-adv-x="367" 
d="M154 64h143c11 0 21 -10 21 -21v-22c0 -12 -10 -21 -21 -21h-210c-11 0 -22 10 -22 21v783c0 11 11 21 22 21h210c11 0 21 -11 21 -22v-21c0 -11 -9 -21 -21 -21h-143c-13 0 -20 -7 -20 -20v-271c0 -13 7 -20 20 -20h139c12 0 22 -10 22 -21v-21c0 -12 -10 -22 -22 -22
h-139c-13 0 -20 -7 -20 -20v-282c0 -13 7 -20 20 -20zM260 885l-46 41c-8 7 -15 10 -22 10s-16 -3 -23 -10l-46 -41c-5 -4 -12 -8 -18 -8c-14 0 -23 10 -23 22c0 6 4 12 13 23l73 87c7 8 14 13 24 13s16 -5 23 -13l74 -87c9 -11 13 -17 13 -23c0 -12 -9 -22 -24 -22
c-6 0 -13 4 -18 8z" />
    <glyph glyph-name="Edieresis" unicode="&#xcb;" horiz-adv-x="374" 
d="M154 64h143c11 0 21 -10 21 -21v-22c0 -12 -10 -21 -21 -21h-210c-11 0 -22 10 -22 21v783c0 11 11 21 22 21h210c11 0 21 -11 21 -22v-21c0 -11 -9 -21 -21 -21h-143c-13 0 -20 -7 -20 -20v-271c0 -13 7 -20 20 -20h149c12 0 23 -10 23 -21v-21c0 -12 -11 -22 -23 -22
h-149c-13 0 -20 -7 -20 -20v-282c0 -13 7 -20 20 -20zM140 938v-30c0 -13 -9 -22 -21 -22h-32c-12 0 -22 9 -22 22v30c0 12 10 21 22 21h32c12 0 21 -9 21 -21zM318 938v-30c0 -13 -9 -22 -21 -22h-32c-12 0 -21 9 -21 22v30c0 12 9 21 21 21h32c12 0 21 -9 21 -21z" />
    <glyph glyph-name="Igrave" unicode="&#xcc;" horiz-adv-x="228" 
d="M120 881l-136 98c-8 5 -10 12 -10 18c0 10 9 21 22 21h32c22 0 28 -3 42 -18l73 -78c13 -14 16 -17 16 -26c0 -11 -9 -21 -21 -21c-5 0 -12 2 -18 6zM79 21v783c0 12 10 21 22 21h25c13 0 22 -9 22 -21v-783c0 -12 -9 -21 -22 -21h-25c-12 0 -22 9 -22 21z" />
    <glyph glyph-name="Iacute" unicode="&#xcd;" horiz-adv-x="228" 
d="M79 21v783c0 12 10 21 22 21h25c13 0 22 -9 22 -21v-783c0 -12 -9 -21 -22 -21h-25c-12 0 -22 9 -22 21zM247 979l-137 -98c-6 -4 -12 -6 -17 -6c-12 0 -22 10 -22 21c0 9 4 12 17 26l72 78c14 15 21 18 42 18h33c13 0 21 -11 21 -21c0 -6 -2 -13 -9 -18z" />
    <glyph glyph-name="Icircumflex" unicode="&#xce;" horiz-adv-x="228" 
d="M182 885l-46 41c-8 7 -15 10 -22 10s-16 -3 -23 -10l-46 -41c-5 -4 -12 -8 -18 -8c-14 0 -23 10 -23 22c0 6 4 12 13 23l73 87c7 8 14 13 24 13s16 -5 23 -13l74 -87c9 -11 13 -17 13 -23c0 -12 -9 -22 -24 -22c-6 0 -13 4 -18 8zM79 21v783c0 12 10 21 22 21h25
c13 0 22 -9 22 -21v-783c0 -12 -9 -21 -22 -21h-25c-12 0 -22 9 -22 21z" />
    <glyph glyph-name="Idieresis" unicode="&#xcf;" horiz-adv-x="228" 
d="M79 21v783c0 12 10 21 22 21h25c13 0 22 -9 22 -21v-783c0 -12 -9 -21 -22 -21h-25c-12 0 -22 9 -22 21zM79 938v-30c0 -13 -9 -22 -21 -22h-32c-12 0 -21 9 -21 22v30c0 12 9 21 21 21h32c12 0 21 -9 21 -21zM222 938v-30c0 -13 -9 -22 -21 -22h-32c-12 0 -21 9 -21 22
v30c0 12 9 21 21 21h32c12 0 21 -9 21 -21z" />
    <glyph glyph-name="Ograve" unicode="&#xd2;" 
d="M235 57c65 0 100 44 100 134v443c0 90 -35 134 -100 134s-100 -44 -100 -134v-443c0 -90 35 -134 100 -134zM235 -7c-102 0 -169 59 -169 182v474c0 129 76 183 169 183s169 -54 169 -183v-474c0 -123 -67 -182 -169 -182zM278 881l-136 98c-8 5 -10 12 -10 18
c0 10 9 21 22 21h32c22 0 28 -3 42 -18l73 -78c13 -14 16 -17 16 -26c0 -11 -9 -21 -21 -21c-5 0 -12 2 -18 6z" />
    <glyph glyph-name="Oacute" unicode="&#xd3;" 
d="M234 57c65 0 100 44 100 134v443c0 90 -35 134 -100 134s-100 -44 -100 -134v-443c0 -90 35 -134 100 -134zM234 -7c-102 0 -169 59 -169 182v474c0 129 76 183 169 183s169 -54 169 -183v-474c0 -123 -67 -182 -169 -182zM328 979l-137 -98c-6 -4 -12 -6 -17 -6
c-12 0 -22 10 -22 21c0 9 4 12 17 26l72 78c14 15 21 18 42 18h33c13 0 21 -11 21 -21c0 -6 -2 -13 -9 -18z" />
    <glyph glyph-name="Ocircumflex" unicode="&#xd4;" 
d="M234 57c65 0 100 44 100 134v443c0 90 -35 134 -100 134s-100 -44 -100 -134v-443c0 -90 35 -134 100 -134zM234 -7c-102 0 -169 59 -169 182v474c0 129 76 183 169 183s169 -54 169 -183v-474c0 -123 -67 -182 -169 -182zM302 885l-46 41c-8 7 -15 10 -22 10
s-16 -3 -23 -10l-46 -41c-5 -4 -12 -8 -18 -8c-14 0 -23 10 -23 22c0 6 4 12 13 23l73 87c7 8 14 13 24 13s16 -5 23 -13l74 -87c9 -11 13 -17 13 -23c0 -12 -9 -22 -24 -22c-6 0 -13 4 -18 8z" />
    <glyph glyph-name="Otilde" unicode="&#xd5;" 
d="M234 57c65 0 100 44 100 134v443c0 90 -35 134 -100 134s-100 -44 -100 -134v-443c0 -90 35 -134 100 -134zM234 -7c-102 0 -169 59 -169 182v474c0 129 76 183 169 183s169 -54 169 -183v-474c0 -123 -67 -182 -169 -182zM220 917l-10 9c-10 9 -15 13 -25 13
s-18 -7 -21 -18l-2 -8c-3 -10 -12 -18 -25 -18c-12 0 -23 10 -23 25c0 39 42 77 76 77c24 0 41 -6 59 -21l10 -9c10 -9 15 -13 24 -13c10 0 19 7 22 18l2 8c3 10 11 18 23 18s24 -10 24 -24c0 -40 -39 -78 -74 -78c-23 0 -43 6 -60 21z" />
    <glyph glyph-name="Ugrave" unicode="&#xd9;" 
d="M134 804v-613c0 -91 35 -134 100 -134c62 0 100 38 100 134v613c0 11 11 21 22 21h27c11 0 20 -10 20 -21v-625c0 -129 -69 -186 -169 -186c-102 0 -169 59 -169 185v626c0 11 11 21 22 21h25c13 0 22 -10 22 -21zM257 881l-136 98c-8 5 -10 12 -10 18c0 10 9 21 22 21
h32c22 0 28 -3 42 -18l73 -78c13 -14 16 -17 16 -26c0 -11 -9 -21 -21 -21c-5 0 -12 2 -18 6z" />
    <glyph glyph-name="Uacute" unicode="&#xda;" 
d="M134 804v-613c0 -91 35 -134 100 -134c62 0 100 38 100 134v613c0 11 11 21 22 21h27c11 0 20 -10 20 -21v-625c0 -129 -69 -186 -169 -186c-102 0 -169 59 -169 185v626c0 11 11 21 22 21h25c13 0 22 -10 22 -21zM318 979l-137 -98c-6 -4 -12 -6 -17 -6
c-12 0 -22 10 -22 21c0 9 4 12 17 26l72 78c14 15 21 18 42 18h33c13 0 21 -11 21 -21c0 -6 -2 -13 -9 -18z" />
    <glyph glyph-name="Ucircumflex" unicode="&#xdb;" 
d="M134 804v-613c0 -91 35 -134 100 -134c62 0 100 38 100 134v613c0 11 11 21 22 21h27c11 0 20 -10 20 -21v-625c0 -129 -69 -186 -169 -186c-102 0 -169 59 -169 185v626c0 11 11 21 22 21h25c13 0 22 -10 22 -21zM302 885l-46 41c-8 7 -15 10 -22 10s-16 -3 -23 -10
l-46 -41c-5 -4 -12 -8 -18 -8c-14 0 -23 10 -23 22c0 6 4 12 13 23l73 87c7 8 14 13 24 13s16 -5 23 -13l74 -87c9 -11 13 -17 13 -23c0 -12 -9 -22 -24 -22c-6 0 -13 4 -18 8z" />
    <glyph glyph-name="Yacute" unicode="&#xdd;" 
d="M201 20v289c0 9 -4 18 -13 22l-15 6c-73 28 -108 87 -108 180v288c0 11 12 20 23 20h25c12 0 21 -9 21 -20v-277c0 -48 6 -85 29 -107c20 -19 43 -28 72 -28c26 0 52 9 70 28c23 22 29 59 29 107v277c0 11 10 20 22 20h26c12 0 21 -9 21 -20v-288
c0 -102 -56 -165 -105 -180l-13 -4c-9 -3 -16 -9 -16 -21v-292c0 -11 -10 -20 -22 -20h-24c-13 0 -22 9 -22 20zM318 979l-137 -98c-6 -4 -12 -6 -17 -6c-12 0 -22 10 -22 21c0 9 4 12 17 26l72 78c14 15 21 18 42 18h33c13 0 21 -11 21 -21c0 -6 -2 -13 -9 -18z" />
    <glyph glyph-name="Thorn" unicode="&#xde;" 
d="M134 157v-137c0 -11 -9 -20 -22 -20h-25c-11 0 -22 9 -22 20v784c0 11 11 21 22 21h25c13 0 22 -9 22 -21v-121c0 -13 8 -23 21 -23h78c97 0 170 -67 170 -176v-125c0 -115 -73 -179 -171 -179h-77c-13 0 -21 -10 -21 -23zM237 596h-78c-18 0 -25 -6 -25 -22v-308
c0 -16 5 -22 21 -22h82c61 0 97 41 97 120v111c0 67 -25 121 -97 121z" />
    <glyph glyph-name="ydieresis" unicode="&#xff;" horiz-adv-x="458" 
d="M328 13v8c0 9 1 24 1 28c0 10 -2 15 -5 19s-8 7 -15 7c-6 0 -10 -1 -13 -2c-17 -5 -39 -19 -79 -19c-43 0 -85 18 -113 51c-25 31 -41 75 -41 136v374c0 11 10 20 21 20h25c12 0 21 -9 21 -20v-367c0 -45 10 -76 25 -97c17 -22 42 -33 69 -33c72 0 104 42 104 121v376
c0 11 9 20 21 20h26c11 0 20 -9 20 -20v-573c0 -75 -8 -106 -23 -134c-27 -52 -78 -79 -144 -79c-87 0 -149 51 -162 143v9c0 12 9 21 20 21h23c13 0 22 -8 24 -21l1 -8c10 -52 52 -80 96 -80c55 0 98 36 98 120zM167 774v-30c0 -13 -9 -22 -21 -22h-32c-12 0 -21 9 -21 22
v30c0 12 9 21 21 21h32c12 0 21 -9 21 -21zM365 774v-30c0 -13 -9 -22 -21 -22h-32c-12 0 -22 9 -22 22v30c0 12 10 21 22 21h32c12 0 21 -9 21 -21z" />
    <glyph glyph-name="asciitilde" unicode="~" horiz-adv-x="549" 
d="M184 370c-32 0 -47 -38 -47 -124c0 -12 -9 -21 -21 -21h-25c-12 0 -21 9 -21 21v12c0 107 42 172 110 172c125 0 126 -143 185 -143c32 0 47 38 47 124c0 12 9 21 21 21h25c12 0 21 -9 21 -21v-12c0 -107 -42 -172 -110 -172c-125 0 -126 143 -185 143z" />
    <glyph glyph-name="zero.tab" 
d="M65 175v474c0 120 67 183 170 183s168 -64 168 -183v-474c0 -125 -72 -182 -168 -182c-102 0 -170 60 -170 182zM334 191v443c0 93 -36 134 -99 134c-66 0 -101 -45 -101 -134v-443c0 -89 35 -134 101 -134c63 0 99 41 99 134z" />
    <glyph glyph-name="one.tab" 
d="M200 88v589c0 12 -10 21 -22 21h-96c-12 0 -23 9 -23 20v17c0 12 11 21 23 21h87c18 0 24 9 28 21l9 30c5 16 8 24 28 24h12c12 0 21 -9 21 -20v-723c0 -13 10 -24 22 -24h97c11 0 20 -9 20 -21v-23c0 -11 -9 -20 -20 -20h-304c-11 0 -23 9 -23 20v23c0 12 12 21 23 21
h97c13 0 21 11 21 24z" />
    <glyph glyph-name="two.tab" 
d="M180 324l68 76c78 86 87 112 87 183v51c0 98 -39 134 -99 134c-66 0 -101 -44 -101 -134v-46c0 -11 -9 -20 -21 -20h-24c-12 0 -24 9 -24 20v57c0 126 68 187 170 187c100 0 168 -64 168 -188v-69c0 -70 -23 -124 -89 -197l-68 -76c-104 -116 -114 -135 -114 -209v-9
c0 0 5 -21 21 -21h230c11 0 20 -9 20 -21v-22c0 -12 -9 -20 -20 -20h-296c-11 0 -22 10 -22 21v75c0 74 18 121 114 228z" />
    <glyph glyph-name="three.tab" 
d="M65 590v54c0 134 76 188 169 188c94 0 170 -56 170 -188v-75c0 -38 -4 -94 -44 -131l-7 -8c-6 -6 -8 -11 -8 -16s2 -10 8 -16l7 -8c39 -36 44 -91 44 -127v-83c0 -102 -65 -187 -170 -187c-99 0 -169 60 -169 190v50c0 12 11 21 22 21h25c13 0 23 -10 23 -22v-41
c0 -103 43 -134 100 -134c63 0 100 40 100 134v69c0 87 -38 124 -98 124h-37c-13 0 -24 9 -24 21v20c0 12 10 22 24 22h36c62 0 99 39 99 124v64c0 81 -28 133 -101 133c-65 0 -99 -44 -99 -134v-44c0 -13 -9 -22 -22 -22h-26c-12 0 -22 9 -22 22z" />
    <glyph glyph-name="four.tab" 
d="M248 785l-130 -481c-5 -20 -12 -40 -12 -52c0 -11 5 -16 20 -16h111c12 0 22 7 22 20v172c0 12 9 21 21 21h25c12 0 21 -9 21 -21v-172c0 -12 8 -20 20 -20h63c12 0 21 -9 21 -21v-21c0 -12 -9 -21 -21 -21h-63c-12 0 -20 -8 -20 -20v-132c0 -12 -9 -21 -21 -21h-25
c-12 0 -21 9 -21 21v132c0 13 -10 20 -22 20h-171c-21 0 -31 11 -31 30v29c0 18 2 31 19 91l128 479c2 7 4 12 7 15c4 5 10 7 19 7h21c7 0 12 -2 16 -5s6 -9 6 -16c0 -3 -1 -9 -3 -18z" />
    <glyph glyph-name="five.tab" 
d="M235 427c-49 0 -86 -21 -97 -21h-6c-23 0 -42 12 -42 46v349c0 13 9 24 22 24h234c11 0 20 -10 20 -21v-21c0 -11 -9 -20 -20 -20h-164c-13 0 -24 -10 -24 -23v-118c0 -85 -2 -102 -2 -117c0 -16 3 -24 22 -24c10 0 30 7 64 7c81 0 161 -54 161 -170v-138
c0 -122 -66 -187 -169 -187c-94 0 -169 52 -169 186v54c0 12 12 21 23 21h23c14 0 23 -11 23 -24v-56c0 -85 47 -117 101 -117c63 0 99 41 99 134v119c0 81 -42 117 -99 117z" />
    <glyph glyph-name="six.tab" 
d="M134 362v-177c0 -81 36 -128 100 -128s100 47 100 127v75c0 83 -33 127 -100 127h-78c-14 0 -22 -10 -22 -24zM65 179v465c0 127 70 188 169 188c111 0 169 -77 169 -187v-59c0 -11 -13 -20 -24 -20h-21c-12 0 -24 9 -24 20v48c0 92 -36 134 -100 134
c-65 0 -100 -44 -100 -134v-162c0 -13 8 -23 22 -23h79c103 0 168 -60 168 -185v-85c0 -89 -45 -186 -169 -186c-111 0 -169 75 -169 186z" />
    <glyph glyph-name="seven.tab" 
d="M356 572l-46 -171c-39 -147 -77 -283 -91 -344c-11 -45 -13 -57 -37 -57h-17c-12 0 -22 6 -21 21v-2c0 39 68 275 121 470l14 49c23 85 53 195 53 206c0 12 -9 19 -24 19h-246c-11 0 -21 9 -21 20v21c0 12 10 21 21 21h321c11 0 20 -10 20 -21v-28
c0 -29 -13 -79 -47 -204z" />
    <glyph glyph-name="eight.tab" 
d="M233 446c59 0 101 35 101 124v73c0 72 -33 125 -98 125c-77 0 -102 -59 -102 -125v-73c0 -93 50 -124 99 -124zM235 57c58 0 99 35 99 129v79c0 91 -45 124 -99 124c-61 0 -101 -40 -101 -129v-79c0 -93 48 -124 101 -124zM233 -7c-110 3 -168 64 -168 187v82
c0 36 6 90 41 127l9 8c7 7 10 12 10 16c0 5 -3 10 -10 16l-9 9c-34 34 -41 84 -41 123v83c0 125 68 188 170 188c110 0 168 -69 168 -188v-86c0 -38 -7 -87 -42 -120c-11 -14 -16 -15 -16 -25c0 -4 2 -9 8 -16l8 -8c38 -37 42 -91 42 -127v-82c0 -125 -67 -187 -170 -187z
" />
    <glyph glyph-name="nine.tab" 
d="M334 640c0 81 -36 128 -100 128s-100 -47 -100 -127v-73c0 -83 33 -127 100 -127h78c14 0 22 10 22 24v175zM403 646v-465c0 -127 -70 -188 -169 -188c-111 0 -169 77 -169 187v54c0 11 13 20 24 20h21c12 0 24 -9 24 -20v-43c0 -92 36 -134 100 -134
c65 0 100 44 100 134v164c0 13 -8 23 -22 23h-79c-103 0 -168 60 -168 185v83c0 89 45 186 169 186c111 0 169 -75 169 -186z" />
    <glyph glyph-name="currency" unicode="&#xa4;" horiz-adv-x="457" 
d="M228 296c33 0 74 22 74 69v98c0 47 -41 68 -74 68c-34 0 -75 -21 -75 -68v-98c0 -47 41 -69 75 -69zM228 239c-20 0 -38 4 -49 9c-12 4 -13 5 -17 5c-6 0 -12 -3 -16 -7l-32 -32c-7 -5 -12 -8 -17 -8s-10 3 -15 8l-9 9c-5 5 -8 10 -8 15s3 11 8 16l30 30c5 5 8 10 8 17
c0 4 -1 7 -6 17c-6 13 -15 38 -15 62v68c0 24 9 49 15 62c5 10 6 13 6 17c0 7 -3 12 -8 17l-30 30c-5 5 -8 11 -8 16s3 10 8 15l9 9c5 5 10 7 15 7s10 -2 17 -7l32 -32c4 -4 10 -7 16 -7c4 0 5 1 17 5c11 5 29 9 49 9c19 0 37 -4 49 -9c12 -4 13 -5 16 -5c6 0 12 3 16 7
l33 32c6 5 11 7 16 7s11 -2 16 -7l9 -9c5 -5 8 -10 8 -15s-3 -11 -8 -16l-31 -30c-5 -5 -8 -10 -8 -17c0 -4 1 -7 6 -17c6 -13 15 -38 15 -62v-68c0 -24 -9 -49 -15 -62c-5 -10 -6 -13 -6 -17c0 -7 3 -12 8 -17l31 -30c5 -5 8 -11 8 -16s-3 -10 -8 -15l-9 -9
c-5 -5 -11 -8 -16 -8s-10 3 -16 8l-33 32c-4 4 -10 7 -16 7c-3 0 -4 -1 -16 -5c-12 -5 -30 -9 -49 -9z" />
    <glyph glyph-name="logicalnot" unicode="&#xac;" horiz-adv-x="549" 
d="M465 417v-184c0 -15 -7 -24 -22 -24h-22c-17 0 -24 11 -24 26v120c0 15 -7 22 -21 22h-267c-15 0 -25 5 -25 20v20c0 12 10 25 25 25h331c15 0 25 -10 25 -25z" />
    <glyph glyph-name="uni00A0" unicode="&#xa0;" horiz-adv-x="237" 
 />
    <glyph glyph-name="uni1E9E" unicode="&#x1e9e;" horiz-adv-x="472" 
d="M231 825h134c35 0 51 -18 51 -43c0 -8 -2 -17 -5 -27l-108 -290c-3 -6 -5 -12 -5 -17s2 -10 10 -12l3 -1c23 -5 38 -11 50 -19c52 -34 61 -99 61 -148v-82c0 -61 -18 -98 -39 -129c-28 -35 -69 -57 -128 -57h-21c-12 0 -22 8 -22 20v23c0 11 10 20 22 20h20
c29 0 53 9 73 29c20 22 26 58 26 106v53c0 48 -5 85 -25 107c-20 20 -46 28 -84 28h-5c-19 0 -25 8 -25 18c0 12 8 28 12 40l108 297c4 11 -1 21 -17 21h-73c-41 0 -65 -8 -84 -31s-26 -59 -26 -107v-604c0 -11 -9 -20 -23 -20h-25c-13 0 -21 9 -21 20v614
c0 68 15 106 37 135c28 35 71 56 129 56z" />
    <glyph glyph-name="onehalf" unicode="&#xbd;" horiz-adv-x="936" 
d="M270 25c75 261 151 524 227 785c4 16 10 20 27 20h24c12 0 16 -6 16 -17c0 -4 -4 -17 -9 -36l-222 -763c-4 -14 -11 -19 -21 -19h-27c-14 0 -18 5 -18 16c0 5 2 10 3 14zM190 826h28c13 0 20 -6 20 -17s-1 -26 -1 -38v-474c0 -13 -6 -21 -20 -21h-27c-11 0 -19 6 -19 18
v393c0 13 -10 23 -22 23h-45c-13 0 -17 8 -17 18v22c0 15 4 19 17 19h27c22 0 28 8 34 23l5 13c5 11 8 21 20 21zM633 203l82 86c23 24 43 57 43 89v41c0 46 -23 74 -61 74c-36 0 -60 -25 -60 -80v-17c0 -12 -8 -19 -21 -19h-24c-13 0 -20 8 -20 21v19c0 65 39 134 122 134
c77 0 128 -48 128 -136v-35c0 -35 -14 -77 -50 -114l-82 -86c-45 -48 -53 -69 -53 -93v-10c0 -11 7 -19 21 -19h146c5 0 18 -5 18 -18v-20c0 -12 -7 -20 -20 -20h-202c-12 0 -28 12 -28 25v45c0 52 21 92 61 133z" />
    <glyph glyph-name="thorn" unicode="&#xfe;" horiz-adv-x="455" 
d="M395 454v-273c0 -132 -78 -188 -151 -188c-22 0 -37 3 -49 6c-19 5 -32 10 -44 10c-13 0 -21 -9 -21 -22c0 -14 1 -13 1 -30v-102c0 -11 -9 -20 -21 -20h-25c-12 0 -22 9 -22 20v949c0 11 10 21 22 21h25c12 0 21 -10 21 -21v-127c0 -17 -1 -16 -1 -29s8 -23 21 -23
c10 0 23 5 37 9c13 4 28 8 54 8c72 0 153 -53 153 -188zM130 446v-266c0 -86 41 -126 99 -126c63 0 99 46 99 126v274c0 86 -41 126 -99 126c-64 0 -99 -43 -99 -134z" />
    <glyph glyph-name="apple" unicode="&#xf8ff;" horiz-adv-x="675" 
d="M198 352l264 -154c6 -3 9 -6 9 -10s-3 -6 -9 -9l-114 -66c-4 -2 -7 -3 -10 -3s-7 1 -10 3l-301 173c-3 2 -5 7 -5 11v151c0 9 3 16 11 21l290 168c4 2 10 3 15 3s10 -1 14 -3l289 -166c8 -5 12 -14 12 -28v-127c0 -7 -2 -10 -6 -10c-2 0 -5 1 -8 3l-278 160
c-10 6 -17 7 -22 7c-6 0 -14 -2 -22 -7l-119 -69c-12 -7 -16 -13 -16 -24c0 -10 6 -18 16 -24zM477 214l-264 154c-6 3 -9 6 -9 10s3 6 9 9l114 66c4 2 7 3 10 3s7 -1 10 -3l301 -173c3 -2 5 -7 5 -11v-151c0 -9 -3 -16 -11 -21l-290 -168c-4 -2 -10 -3 -15 -3s-10 1 -14 3
l-289 166c-8 5 -12 14 -12 28v127c0 7 2 10 6 10c2 0 5 -1 8 -3l278 -160c10 -6 17 -7 22 -7c6 0 14 2 22 7l119 69c12 7 16 13 16 24c0 10 -6 18 -16 24z" />
    <glyph glyph-name="A.alt" 
d="M134 253v-62c0 -84 28 -134 100 -134c62 0 100 33 100 133v174c0 16 -5 22 -21 22h-82c-64 0 -97 -41 -97 -133zM65 175v93c0 119 66 182 169 182h79c13 0 21 10 21 23v162c0 81 -28 133 -101 133c-65 0 -99 -44 -99 -134v-44c0 -13 -9 -22 -22 -22h-26
c-12 0 -22 9 -22 22v54c0 134 76 188 169 188c94 0 170 -56 170 -188v-618c0 -15 -11 -28 -30 -28c-11 0 -19 4 -26 11l-2 2c-6 6 -10 8 -17 8c-9 0 -24 -8 -35 -12c-18 -7 -43 -14 -71 -14c-38 0 -84 15 -113 46c-25 28 -44 67 -44 136z" />
    <glyph glyph-name="E.alt" 
d="M65 175v474c0 129 76 183 169 183s169 -54 169 -183v-243c0 -11 -11 -20 -22 -20h-226c-16 0 -21 -6 -21 -22v-173c0 -90 33 -134 100 -134c64 0 100 42 100 134v42c0 12 10 21 21 21h27c11 0 21 -9 21 -21v-58c0 -119 -65 -182 -169 -182s-169 64 -169 182zM134 634
v-161c0 -13 8 -23 21 -23h158c12 0 21 8 21 21v163c0 90 -35 134 -100 134s-100 -44 -100 -134z" />
    <glyph glyph-name="Adieresis.alt" 
d="M134 253v-62c0 -84 28 -134 100 -134c62 0 100 33 100 133v174c0 16 -5 22 -21 22h-82c-64 0 -97 -41 -97 -133zM65 175v93c0 119 66 182 169 182h79c13 0 21 10 21 23v162c0 81 -28 133 -101 133c-65 0 -99 -44 -99 -134v-44c0 -13 -9 -22 -22 -22h-26
c-12 0 -22 9 -22 22v54c0 134 76 188 169 188c94 0 170 -56 170 -188v-618c0 -15 -11 -28 -30 -28c-11 0 -19 4 -26 11l-2 2c-6 6 -10 8 -17 8c-9 0 -24 -8 -35 -12c-18 -7 -43 -14 -71 -14c-38 0 -84 15 -113 46c-25 28 -44 67 -44 136zM172 938v-30c0 -13 -9 -22 -21 -22
h-32c-12 0 -21 9 -21 22v30c0 12 9 21 21 21h32c12 0 21 -9 21 -21zM370 938v-30c0 -13 -9 -22 -22 -22h-31c-12 0 -22 9 -22 22v30c0 12 10 21 22 21h31c13 0 22 -9 22 -21z" />
    <glyph glyph-name="Aring.alt" 
d="M134 253v-62c0 -84 28 -134 100 -134c62 0 100 33 100 133v174c0 16 -5 22 -21 22h-82c-64 0 -97 -41 -97 -133zM65 175v93c0 119 66 182 169 182h79c13 0 21 10 21 23v162c0 81 -28 133 -101 133c-65 0 -99 -44 -99 -134v-44c0 -13 -9 -22 -22 -22h-26
c-12 0 -22 9 -22 22v54c0 134 76 188 169 188c94 0 170 -56 170 -188v-618c0 -15 -11 -28 -30 -28c-11 0 -19 4 -26 11l-2 2c-6 6 -10 8 -17 8c-9 0 -24 -8 -35 -12c-18 -7 -43 -14 -71 -14c-38 0 -84 15 -113 46c-25 28 -44 67 -44 136zM206 946c0 -15 12 -27 27 -27
c16 0 29 12 29 27c0 16 -13 28 -29 28c-15 0 -27 -12 -27 -28zM158 946c0 41 33 76 75 76c43 0 77 -35 77 -76s-34 -75 -77 -75c-42 0 -75 34 -75 75z" />
    <glyph glyph-name="Eacute.alt" 
d="M65 175v474c0 129 76 183 169 183s169 -54 169 -183v-243c0 -11 -11 -20 -22 -20h-226c-16 0 -21 -6 -21 -22v-173c0 -90 33 -134 100 -134c64 0 100 42 100 134v42c0 12 10 21 21 21h27c11 0 21 -9 21 -21v-58c0 -119 -65 -182 -169 -182s-169 64 -169 182zM134 634
v-161c0 -13 8 -23 21 -23h158c12 0 21 8 21 21v163c0 90 -35 134 -100 134s-100 -44 -100 -134zM328 979l-137 -98c-6 -4 -12 -6 -17 -6c-12 0 -22 10 -22 21c0 9 4 12 17 26l72 78c14 15 21 18 42 18h33c13 0 21 -11 21 -21c0 -6 -2 -13 -9 -18z" />
    <glyph glyph-name="AE.alt" horiz-adv-x="737" 
d="M134 253v-62c0 -84 28 -134 100 -134c62 0 100 33 100 133v174c0 16 -5 22 -21 22h-82c-64 0 -97 -41 -97 -133zM403 634v-161c0 -13 8 -23 21 -23h158c12 0 21 8 21 21v163c0 90 -35 134 -100 134s-100 -44 -100 -134zM65 181v87c0 119 66 182 169 182h79
c13 0 21 10 21 23v162c0 81 -28 133 -101 133c-65 0 -99 -44 -99 -134v-44c0 -13 -9 -22 -22 -22h-25c-12 0 -22 9 -22 22v54c0 134 78 188 171 188c54 0 84 -15 115 -43l5 -4c6 -6 10 -8 14 -8c5 0 10 2 16 8l6 4c30 28 66 43 109 43c93 0 171 -54 171 -183v-243
c0 -11 -11 -20 -22 -20h-226c-16 0 -21 -6 -21 -22v-173c0 -90 33 -134 100 -134c64 0 100 42 100 134v42c0 12 10 21 21 21h27c11 0 21 -9 21 -21v-57c0 -129 -78 -183 -171 -183c-43 0 -79 15 -109 43l-6 4c-6 6 -11 8 -16 8c-4 0 -8 -2 -14 -8l-5 -4
c-31 -28 -61 -43 -115 -43c-93 0 -171 54 -171 188z" />
    <glyph glyph-name="Agrave.alt" 
d="M134 253v-62c0 -84 28 -134 100 -134c62 0 100 33 100 133v174c0 16 -5 22 -21 22h-82c-64 0 -97 -41 -97 -133zM65 175v93c0 119 66 182 169 182h79c13 0 21 10 21 23v162c0 81 -28 133 -101 133c-65 0 -99 -44 -99 -134v-44c0 -13 -9 -22 -22 -22h-26
c-12 0 -22 9 -22 22v54c0 134 76 188 169 188c94 0 170 -56 170 -188v-618c0 -15 -11 -28 -30 -28c-11 0 -19 4 -26 11l-2 2c-6 6 -10 8 -17 8c-9 0 -24 -8 -35 -12c-18 -7 -43 -14 -71 -14c-38 0 -84 15 -113 46c-25 28 -44 67 -44 136zM277 881l-136 98
c-8 5 -10 12 -10 18c0 10 9 21 22 21h32c22 0 28 -3 42 -18l73 -78c13 -14 16 -17 16 -26c0 -11 -9 -21 -21 -21c-5 0 -12 2 -18 6z" />
    <glyph glyph-name="Atilde.alt" 
d="M134 253v-62c0 -84 28 -134 100 -134c62 0 100 33 100 133v174c0 16 -5 22 -21 22h-82c-64 0 -97 -41 -97 -133zM65 175v93c0 119 66 182 169 182h79c13 0 21 10 21 23v162c0 81 -28 133 -101 133c-65 0 -99 -44 -99 -134v-44c0 -13 -9 -22 -22 -22h-26
c-12 0 -22 9 -22 22v54c0 134 76 188 169 188c94 0 170 -56 170 -188v-618c0 -15 -11 -28 -30 -28c-11 0 -19 4 -26 11l-2 2c-6 6 -10 8 -17 8c-9 0 -24 -8 -35 -12c-18 -7 -43 -14 -71 -14c-38 0 -84 15 -113 46c-25 28 -44 67 -44 136zM220 917l-10 9c-10 9 -15 13 -25 13
s-18 -7 -21 -18l-2 -8c-3 -10 -12 -18 -25 -18c-12 0 -23 10 -23 25c0 39 42 77 76 77c24 0 41 -6 59 -21l10 -9c10 -9 15 -13 24 -13c10 0 19 7 22 18l2 8c3 10 11 18 23 18s24 -10 24 -24c0 -40 -39 -78 -74 -78c-23 0 -43 6 -60 21z" />
    <glyph glyph-name="OE.alt" horiz-adv-x="737" 
d="M403 634v-161c0 -13 8 -23 21 -23h158c12 0 21 8 21 21v163c0 90 -35 134 -100 134s-100 -44 -100 -134zM134 634v-443c0 -84 28 -134 100 -134c62 0 100 33 100 133v445c0 81 -28 133 -101 133c-65 0 -99 -44 -99 -134zM65 181v463c0 134 78 188 171 188
c54 0 84 -15 115 -43l5 -4c6 -6 10 -8 14 -8c5 0 10 2 16 8l6 4c30 28 66 43 109 43c93 0 171 -54 171 -183v-243c0 -11 -11 -20 -22 -20h-226c-16 0 -21 -6 -21 -22v-173c0 -90 33 -134 100 -134c64 0 100 42 100 134v42c0 12 10 21 21 21h27c11 0 21 -9 21 -21v-57
c0 -129 -78 -183 -171 -183c-43 0 -79 15 -109 43l-6 4c-6 6 -11 8 -16 8c-4 0 -8 -2 -14 -8l-5 -4c-31 -28 -61 -43 -115 -43c-93 0 -171 54 -171 188z" />
    <glyph glyph-name="Acircumflex.alt" 
d="M134 253v-62c0 -84 28 -134 100 -134c62 0 100 33 100 133v174c0 16 -5 22 -21 22h-82c-64 0 -97 -41 -97 -133zM65 175v93c0 119 66 182 169 182h79c13 0 21 10 21 23v162c0 81 -28 133 -101 133c-65 0 -99 -44 -99 -134v-44c0 -13 -9 -22 -22 -22h-26
c-12 0 -22 9 -22 22v54c0 134 76 188 169 188c94 0 170 -56 170 -188v-618c0 -15 -11 -28 -30 -28c-11 0 -19 4 -26 11l-2 2c-6 6 -10 8 -17 8c-9 0 -24 -8 -35 -12c-18 -7 -43 -14 -71 -14c-38 0 -84 15 -113 46c-25 28 -44 67 -44 136zM301 885l-46 41c-8 7 -15 10 -22 10
s-16 -3 -23 -10l-46 -41c-5 -4 -12 -8 -18 -8c-14 0 -23 10 -23 22c0 6 4 12 13 23l73 87c7 8 14 13 24 13s16 -5 23 -13l74 -87c9 -11 13 -17 13 -23c0 -12 -9 -22 -24 -22c-6 0 -13 4 -18 8z" />
    <glyph glyph-name="Ecircumflex.alt" 
d="M65 175v474c0 129 76 183 169 183s169 -54 169 -183v-243c0 -11 -11 -20 -22 -20h-226c-16 0 -21 -6 -21 -22v-173c0 -90 33 -134 100 -134c64 0 100 42 100 134v42c0 12 10 21 21 21h27c11 0 21 -9 21 -21v-58c0 -119 -65 -182 -169 -182s-169 64 -169 182zM134 634
v-161c0 -13 8 -23 21 -23h158c12 0 21 8 21 21v163c0 90 -35 134 -100 134s-100 -44 -100 -134zM301 885l-46 41c-8 7 -15 10 -22 10s-16 -3 -23 -10l-46 -41c-5 -4 -12 -8 -18 -8c-14 0 -23 10 -23 22c0 6 4 12 13 23l73 87c7 8 14 13 24 13s16 -5 23 -13l74 -87
c9 -11 13 -17 13 -23c0 -12 -9 -22 -24 -22c-6 0 -13 4 -18 8z" />
    <glyph glyph-name="Aacute.alt" 
d="M134 253v-62c0 -84 28 -134 100 -134c62 0 100 33 100 133v174c0 16 -5 22 -21 22h-82c-64 0 -97 -41 -97 -133zM65 175v93c0 119 66 182 169 182h79c13 0 21 10 21 23v162c0 81 -28 133 -101 133c-65 0 -99 -44 -99 -134v-44c0 -13 -9 -22 -22 -22h-26
c-12 0 -22 9 -22 22v54c0 134 76 188 169 188c94 0 170 -56 170 -188v-618c0 -15 -11 -28 -30 -28c-11 0 -19 4 -26 11l-2 2c-6 6 -10 8 -17 8c-9 0 -24 -8 -35 -12c-18 -7 -43 -14 -71 -14c-38 0 -84 15 -113 46c-25 28 -44 67 -44 136zM327 979l-137 -98
c-6 -4 -12 -6 -17 -6c-12 0 -22 10 -22 21c0 9 4 12 17 26l72 78c14 15 21 18 42 18h33c13 0 21 -11 21 -21c0 -6 -2 -13 -9 -18z" />
    <glyph glyph-name="Edieresis.alt" 
d="M65 175v474c0 129 76 183 169 183s169 -54 169 -183v-243c0 -11 -11 -20 -22 -20h-226c-16 0 -21 -6 -21 -22v-173c0 -90 33 -134 100 -134c64 0 100 42 100 134v42c0 12 10 21 21 21h27c11 0 21 -9 21 -21v-58c0 -119 -65 -182 -169 -182s-169 64 -169 182zM134 634
v-161c0 -13 8 -23 21 -23h158c12 0 21 8 21 21v163c0 90 -35 134 -100 134s-100 -44 -100 -134zM172 938v-30c0 -13 -9 -22 -21 -22h-32c-12 0 -21 9 -21 22v30c0 12 9 21 21 21h32c12 0 21 -9 21 -21zM370 938v-30c0 -13 -9 -22 -22 -22h-31c-12 0 -22 9 -22 22v30
c0 12 10 21 22 21h31c13 0 22 -9 22 -21z" />
    <glyph glyph-name="Egrave.alt" 
d="M65 175v474c0 129 76 183 169 183s169 -54 169 -183v-243c0 -11 -11 -20 -22 -20h-226c-16 0 -21 -6 -21 -22v-173c0 -90 33 -134 100 -134c64 0 100 42 100 134v42c0 12 10 21 21 21h27c11 0 21 -9 21 -21v-58c0 -119 -65 -182 -169 -182s-169 64 -169 182zM134 634
v-161c0 -13 8 -23 21 -23h158c12 0 21 8 21 21v163c0 90 -35 134 -100 134s-100 -44 -100 -134zM277 881l-136 98c-8 5 -10 12 -10 18c0 10 9 21 22 21h32c22 0 28 -3 42 -18l73 -78c13 -14 16 -17 16 -26c0 -11 -9 -21 -21 -21c-5 0 -12 2 -18 6z" />
    <glyph glyph-name="Amacron.alt" 
d="M134 253v-62c0 -84 28 -134 100 -134c62 0 100 33 100 133v174c0 16 -5 22 -21 22h-82c-64 0 -97 -41 -97 -133zM65 175v93c0 119 66 182 169 182h79c13 0 21 10 21 23v162c0 81 -28 133 -101 133c-65 0 -99 -44 -99 -134v-44c0 -13 -9 -22 -22 -22h-26
c-12 0 -22 9 -22 22v54c0 134 76 188 169 188c94 0 170 -56 170 -188v-618c0 -15 -11 -28 -30 -28c-11 0 -19 4 -26 11l-2 2c-6 6 -10 8 -17 8c-9 0 -24 -8 -35 -12c-18 -7 -43 -14 -71 -14c-38 0 -84 15 -113 46c-25 28 -44 67 -44 136zM129 950h209c13 0 22 -8 22 -20v-16
c0 -12 -9 -20 -22 -20h-209c-12 0 -21 8 -21 20v16c0 12 9 20 21 20z" />
    <glyph glyph-name="Abreve.alt" 
d="M134 253v-62c0 -84 28 -134 100 -134c62 0 100 33 100 133v174c0 16 -5 22 -21 22h-82c-64 0 -97 -41 -97 -133zM65 175v93c0 119 66 182 169 182h79c13 0 21 10 21 23v162c0 81 -28 133 -101 133c-65 0 -99 -44 -99 -134v-44c0 -13 -9 -22 -22 -22h-26
c-12 0 -22 9 -22 22v54c0 134 76 188 169 188c94 0 170 -56 170 -188v-618c0 -15 -11 -28 -30 -28c-11 0 -19 4 -26 11l-2 2c-6 6 -10 8 -17 8c-9 0 -24 -8 -35 -12c-18 -7 -43 -14 -71 -14c-38 0 -84 15 -113 46c-25 28 -44 67 -44 136zM233 880c-50 0 -98 33 -98 92
c0 31 5 49 28 49c7 0 13 -3 17 -8s6 -13 6 -22v-5c0 -29 22 -46 47 -46c26 0 47 17 47 46v5c0 9 2 17 6 22s11 8 18 8c22 0 27 -18 27 -49c0 -59 -46 -92 -98 -92z" />
    <glyph glyph-name="Aogonek.alt" 
d="M134 253v-62c0 -84 31 -134 103 -134c65 0 97 23 97 133v174c0 16 -5 22 -21 22h-82c-64 0 -97 -41 -97 -133zM222 -6c-38 0 -84 15 -113 46c-25 28 -44 66 -44 135v93c0 119 66 182 169 182h79c13 0 21 10 21 23v162c0 81 -28 133 -101 133c-65 0 -99 -44 -99 -134v-44
c0 -13 -9 -22 -22 -22h-26c-12 0 -22 9 -22 22v54c0 134 76 188 169 188c94 0 170 -56 170 -188v-618c0 -20 -6 -34 -29 -53l-18 -16c-15 -14 -23 -22 -23 -37s14 -25 26 -25c9 0 17 10 28 10s22 -9 22 -22c0 -14 -16 -45 -62 -45c-43 0 -75 24 -75 65c0 46 37 57 37 79
c0 12 -10 21 -22 21c-6 0 -11 -1 -20 -3s-22 -6 -45 -6z" />
    <glyph glyph-name="Emacron.alt" 
d="M65 175v474c0 129 76 183 169 183s169 -54 169 -183v-243c0 -11 -11 -20 -22 -20h-226c-16 0 -21 -6 -21 -22v-173c0 -90 33 -134 100 -134c64 0 100 42 100 134v42c0 12 10 21 21 21h27c11 0 21 -9 21 -21v-58c0 -119 -65 -182 -169 -182s-169 64 -169 182zM134 634
v-161c0 -13 8 -23 21 -23h158c12 0 21 8 21 21v163c0 90 -35 134 -100 134s-100 -44 -100 -134zM129 950h209c13 0 22 -8 22 -20v-16c0 -12 -9 -20 -22 -20h-209c-12 0 -21 8 -21 20v16c0 12 9 20 21 20z" />
    <glyph glyph-name="Ebreve.alt" 
d="M65 175v474c0 129 76 183 169 183s169 -54 169 -183v-243c0 -11 -11 -20 -22 -20h-226c-16 0 -21 -6 -21 -22v-173c0 -90 33 -134 100 -134c64 0 100 42 100 134v42c0 12 10 21 21 21h27c11 0 21 -9 21 -21v-58c0 -119 -65 -182 -169 -182s-169 64 -169 182zM134 634
v-161c0 -13 8 -23 21 -23h158c12 0 21 8 21 21v163c0 90 -35 134 -100 134s-100 -44 -100 -134zM233 880c-50 0 -98 33 -98 92c0 31 5 49 28 49c7 0 13 -3 17 -8s6 -13 6 -22v-5c0 -29 22 -46 47 -46c26 0 47 17 47 46v5c0 9 2 17 6 22s11 8 18 8c22 0 27 -18 27 -49
c0 -59 -46 -92 -98 -92z" />
    <glyph glyph-name="Edotaccent.alt" 
d="M65 175v474c0 129 76 183 169 183s169 -54 169 -183v-243c0 -11 -11 -20 -22 -20h-226c-16 0 -21 -6 -21 -22v-173c0 -90 33 -134 100 -134c64 0 100 42 100 134v42c0 12 10 21 21 21h27c11 0 21 -9 21 -21v-58c0 -119 -65 -182 -169 -182s-169 64 -169 182zM134 634
v-161c0 -13 8 -23 21 -23h158c12 0 21 8 21 21v163c0 90 -35 134 -100 134s-100 -44 -100 -134zM196 911v33c0 12 9 21 21 21h32c12 0 21 -9 21 -21v-33c0 -12 -9 -21 -21 -21h-32c-12 0 -21 9 -21 21z" />
    <glyph glyph-name="Eogonek.alt" 
d="M134 634v-161c0 -13 8 -23 21 -23h158c12 0 21 8 21 21v163c0 90 -35 134 -100 134s-100 -44 -100 -134zM65 175v474c0 129 76 183 169 183s169 -54 169 -183v-243c0 -11 -11 -20 -22 -20h-226c-16 0 -21 -6 -21 -22v-173c0 -90 33 -134 100 -134c64 0 100 42 100 134v42
c0 12 10 21 21 21h27c11 0 21 -9 21 -21v-55c0 -41 -8 -76 -20 -103c-17 -35 -66 -82 -87 -102l-19 -17c-11 -11 -22 -22 -22 -37s13 -25 26 -25c9 0 17 10 28 10c10 0 22 -9 22 -22c0 -14 -18 -45 -64 -45c-43 0 -74 21 -74 62c0 43 37 51 37 75c0 12 -9 20 -23 22l-7 1
c-86 12 -135 81 -135 178z" />
    <glyph glyph-name="Ecaron.alt" 
d="M65 175v474c0 129 76 183 169 183s169 -54 169 -183v-243c0 -11 -11 -20 -22 -20h-226c-16 0 -21 -6 -21 -22v-173c0 -90 33 -134 100 -134c64 0 100 42 100 134v42c0 12 10 21 21 21h27c11 0 21 -9 21 -21v-58c0 -119 -65 -182 -169 -182s-169 64 -169 182zM134 634
v-161c0 -13 8 -23 21 -23h158c12 0 21 8 21 21v163c0 90 -35 134 -100 134s-100 -44 -100 -134zM165 1014l46 -41c8 -7 16 -10 23 -10s15 3 22 10l46 41c5 4 12 8 18 8c15 0 24 -10 24 -22c0 -6 -4 -12 -13 -23l-74 -87c-7 -8 -13 -13 -23 -13s-17 5 -24 13l-73 87
c-9 11 -13 17 -13 23c0 12 9 22 23 22c6 0 13 -4 18 -8z" />
    </font>
</defs>
</svg>
